Господин Леон / Adon Leon (Зеев Ревах / Ze\'ev Revach) [1982, Израиль, комедия, SATRip] Original Heb + Rus Hardsub

Reply to topic
DL-List and Torrent activity
Size:  1.49 GB   |    Registered:  4 years 3 months   |    Completed:  0 times

Seeder not seen: Never

 
   
 
 
Author Message

star21 ®

Gender: Female

Longevity: 4 years 4 months

Posts: 551945

Location: Екатеринбург

Post 30-Nov-2015 05:52

[Quote]

Господин Леон / Adon Leon
Страна: Израиль
Жанр: комедия
Год выпуска: 1982
Продолжительность: 01:40:04
Перевод: Субтитры
Cубтитры: русские
Оригинальная аудиодорожка: иврит
Режиссер: Зеев Ревах \ Ze'ev Revach
В ролях: Зеев Ревах, Нурит Коэн, Якоб Банай, Мейр Суисса, Батия Розенталь, Моше Ивги
Описание: Из-за серии случайностей Леон уверен, что у его дочери рождается ребенок вне брака и он истерически начинает искать отца младенца.
Доп. информация:: Огромное спасибо abraka за предоставленную запись.
Сэмпл: http://multi-up.com/1071108
Качество видео: SATRip
Формат видео: AVI
Видео: Xvid 720x544 25fps 1994kbps
Аудио: MP3 48000Hz stereo 128kbps
Формат субтитров: hardsub (неотключаемые)

MediaInfo

General
Complete name : C:\downloads\Господин Леон.avi
Format : AVI
Format/Info : Audio Video Interleave
File size : 1.49 GiB
Duration : 1h 40mn
Overall bit rate : 2 132 Kbps
Video
ID : 0
Format : MPEG-4 Visual
Format profile : Advanced Simple@L5
Format settings, BVOP : 2
Format settings, QPel : No
Format settings, GMC : No warppoints
Format settings, Matrix : Default (H.263)
Codec ID : XVID
Codec ID/Hint : XviD
Duration : 1h 40mn
Bit rate : 1 995 Kbps
Width : 720 pixels
Height : 544 pixels
Display aspect ratio : 4:3
Frame rate : 25.000 fps
Color space : YUV
Chroma subsampling : 4:2:0
Bit depth : 8 bits
Scan type : Progressive
Compression mode : Lossy
Bits/(Pixel*Frame) : 0.204
Stream size : 1.39 GiB (94%)
Writing library : XviD 73
Audio
ID : 1
Format : MPEG Audio
Format version : Version 1
Format profile : Layer 3
Mode : Joint stereo
Mode extension : MS Stereo
Codec ID : 55
Codec ID/Hint : MP3
Duration : 1h 40mn
Bit rate mode : Constant
Bit rate : 128 Kbps
Channel(s) : 2 channels
Sampling rate : 48.0 KHz
Compression mode : Lossy
Stream size : 91.6 MiB (6%)
Alignment : Split accross interleaves
Interleave, duration : 40 ms (1.00 video frame)
Interleave, preload duratio : 500 ms

Скриншоты





To download the content you need:
1. Download and install torrent client [for Windows] or for mobile system
2. Click on [Download]
Attention.
If the test YOU are NOT a ROBOT - does not work, then You are using an outdated browser.
Install the current browser and click on [Download]

Do not work with Yandex browser. Uploading files to them is erroneous.
Security: torrent client is allowed by Kaspersky.

[en.asmlocator.ru].t4160.torrent 
Torrent: Registered [ 2015-11-30 05:45 ] · B1FA4A6CE6CC0D78BF9EE598ECB85ACA17886309

Download .torrent

Download

15 KB

Status: checked
Completed: 0 times
Size: 1.49 GB
terms.php
[Profile] [PM]
Display posts:    
Reply to topic

Current time is: 28-Mar 23:43

All times are UTC ± 0



You cannot post new topics in this forum
You cannot reply to topics in this forum
You cannot edit your posts in this forum
You cannot delete your posts in this forum
You cannot vote in polls in this forum
You cannot attach files in this forum
You can download files in this forum
Верим фактам, а не вранью Путина! Факт, что Правительство ведёт Россию к истреблению.
Так как численность населения падает, даже не смотря на приток эмигрантов!
Русская нация вымирает и вырождается, смешиваясь с эмигрантами!
Факт, что военных и граждан предприятий заставляют голосовать за партию Единая Россия и Путина
ПОД СТРАХОМ УВОЛЬНЕНИЯ!
Нам не нужно Правительство, блокирующее личную жизнь, интернет, нарушающее сохранность данных.
Все эти действия финансируются за счёт народа!