Хищник / Predator (Джон МакТирнан / John McTiernan) [1987, США, фантастика, ужасы, боевик, DVDRip] [Fullscreen] AVO (Гаврилов (средний)) + AVO (Живов) + AVO (Дохалов) + AVO (Гаврилов (ранний)) + AVO (Горчаков)

Reply to topic
DL-List and Torrent activity
Size:  1.89 GB   |    Registered:  4 years 7 months   |    Completed:  1 time

Seeder not seen: 8 months 24 days

 
   
 
 
Author Message

star21 ®

Gender: Female

Longevity: 4 years 8 months

Posts: 551945

Location: Екатеринбург

Post 30-Nov-2015 05:52

[Quote]

Хищник / Predator / Full Screen
Страна: США
Жанр: фантастика, ужасы, боевик
Год выпуска: 1987
Продолжительность: 01:46:32
-
Перевод 1: Авторский (одноголосый закадровый) Андрей Гаврилов (средний)
Перевод 2: Авторский (одноголосый закадровый) Юрий Живов
Перевод 3: Авторский (одноголосый закадровый) Вартан Дохалов
Перевод 4: Авторский (одноголосый закадровый) Андрей Гаврилов (ранний) наложен на французский дубляж
Перевод 5: Авторский (одноголосый закадровый) Василий Горчаков
Cубтитры: нет
-
Режиссер: Джон МакТирнан / John McTiernan
В ролях: Арнольд Шварценеггер, Карл Уэзерс, Элпидия Каррильо, Билл Дьюк, Джесси Вентура, Сонни Лэндэм, Ричард Чавес, Р.Г. Армстронг, Шейн Блэк, Кевин Питер Холл
-
Описание: Американский вертолет был сбит партизанами в Южной Америке. Оставшийся в живых экипаж находится в плену. Центральное разведывательное управление США бросает свои лучшие силы для освобождения американских граждан. Элитная группа спецназа во главе с Датчем была заброшена в южноамериканские джунгли.
-
Доп. информация: [imdb]http://www.imdb.com/title/tt0093773[/imdb]
Зв. дорожки: 1-3, 5 отсюда и 4 - (Всем спасибо)
-
Сэмпл: http://sendfile.su/1164256
-
Качество видео: DVDRip (DVD9/soulstorm/Dreven)
Формат видео: AVI
Видео: 624x464 (1.34:1), 23.976 fps, XviD build 65 ~1562 kbps avg, 0.23 bit/pixel
Аудио 1: 48 kHz, AC3 Dolby Digital, 2/0 (L,R) ch, ~192 kbps Гаврилов (средний)
Аудио 2: 48 kHz, AC3 Dolby Digital, 2/0 (L,R) ch, ~192 kbps Живов
Аудио 3: 48 kHz, AC3 Dolby Digital, 2/0 (L,R) ch, ~192 kbps Дохалов Отдельно
Аудио 4: 48 kHz, AC3 Dolby Digital, 2/0 (L,R) ch, ~192 kbps Гаврилов (ранний) Отдельно
Аудио 5: 48 kHz, AC3 Dolby Digital, 2/0 (L,R) ch, ~192 kbps Горчаков Отдельно

MediaInfo

General
Complete name : C:\Users\ALEX\Downloads\Фильмы\Predator.Full Screen.1987.DUALRUS.DVDRip.XviD.AC3\Predator.Full Screen.1987.DUALRUS.DVDRip.XviD.AC3.avi
Format : AVI
Format/Info : Audio Video Interleave
File size : 1.46 GiB
Duration : 1h 46mn
Overall bit rate : 1 962 Kbps
Writing application : VirtualDubMod 1.5.10.2 (build 2542/release)
Writing library : VirtualDubMod build 2542/release
Video
ID : 0
Format : MPEG-4 Visual
Format profile : Advanced Simple@L5
Format settings, BVOP : 1
Format settings, QPel : No
Format settings, GMC : No warppoints
Format settings, Matrix : Custom
Codec ID : XVID
Codec ID/Hint : XviD
Duration : 1h 46mn
Bit rate : 1 563 Kbps
Width : 624 pixels
Height : 464 pixels
Display aspect ratio : 4:3
Frame rate : 23.976 fps
Color space : YUV
Chroma subsampling : 4:2:0
Bit depth : 8 bits
Scan type : Progressive
Compression mode : Lossy
Bits/(Pixel*Frame) : 0.225
Stream size : 1.16 GiB (80%)
Writing library : XviD 65
Audio #1
ID : 1
Format : AC-3
Format/Info : Audio Coding 3
Mode extension : CM (complete main)
Format settings, Endianness : Big
Codec ID : 2000
Duration : 1h 46mn
Bit rate mode : Constant
Bit rate : 192 Kbps
Channel(s) : 2 channels
Channel positions : Front: L R
Sampling rate : 48.0 KHz
Bit depth : 16 bits
Compression mode : Lossy
Stream size : 146 MiB (10%)
Alignment : Split accross interleaves
Interleave, duration : 42 ms (1.00 video frame)
Interleave, preload duration : 500 ms
Audio #2
ID : 2
Format : AC-3
Format/Info : Audio Coding 3
Mode extension : CM (complete main)
Format settings, Endianness : Big
Codec ID : 2000
Duration : 1h 46mn
Bit rate mode : Constant
Bit rate : 192 Kbps
Channel(s) : 2 channels
Channel positions : Front: L R
Sampling rate : 48.0 KHz
Bit depth : 16 bits
Compression mode : Lossy
Stream size : 146 MiB (10%)
Alignment : Split accross interleaves
Interleave, duration : 42 ms (1.00 video frame)
Interleave, preload duration : 500 ms

Скриншоты

To download the content you need:
1. Download and install torrent client [for Windows] or for mobile system
2. Click on [Download]
Attention.
If the test YOU are NOT a ROBOT - does not work, then You are using an outdated browser.
Install the current browser and click on [Download]

Do not work with Yandex browser. Uploading files to them is erroneous.
Security: torrent client is allowed by Kaspersky.

[en.asmlocator.ru].t4159.torrent 
Torrent: Registered [ 2015-11-30 05:45 ] · 9CE22325003BAA1F85B70D298D633355379FC4B0

Download .torrent

Download

20 KB

Status: checked
Completed: 1 times
Size: 1.89 GB
terms.php
[Profile] [PM]
Display posts:    
Reply to topic

Current time is: 13-Jul 01:13

All times are UTC ± 0



You cannot post new topics in this forum
You cannot reply to topics in this forum
You cannot edit your posts in this forum
You cannot delete your posts in this forum
You cannot vote in polls in this forum
You cannot attach files in this forum
You can download files in this forum
Верим фактам, а не вранью Путина! Факт, что Правительство ведёт Россию к истреблению.
Так как численность населения падает, даже не смотря на приток эмигрантов!
Русская нация вымирает и вырождается, смешиваясь с эмигрантами!
Факт, что военных и граждан предприятий заставляют голосовать за партию Единая Россия и Путина
ПОД СТРАХОМ УВОЛЬНЕНИЯ!
Нам не нужно Правительство, блокирующее личную жизнь, интернет, нарушающее сохранность данных.
Все эти действия финансируются за счёт народа!