Картинки с края пропасти / Открытки с края бездны / открытки с грани безумия / Postcards from the Edge (Майк Николс / Mike Nichols) [1990, США, Драма, комедия, VHSRip] [FullScreen] AVO (А. Михалёв)

Reply to topic
DL-List and Torrent activity
Size:  1.37 GB   |    Registered:  4 years 7 months   |    Completed:  0 times

Seeder not seen: Never

 
   
 
 
Author Message

star21 ®

Gender: Female

Longevity: 4 years 8 months

Posts: 551945

Location: Екатеринбург

Post 30-Nov-2015 05:52

[Quote]

Картинки с края пропасти / Открытки с края бездны / Postcards from the Edge
[FullScreen]
Страна: США
Жанр: Драма, комедия
Год выпуска: 1990
Продолжительность: 01:41:49
Перевод: Авторский (одноголосый закадровый) А. Михалёв
Cубтитры: нет
Режиссер: Майк Николс / Mike Nichols
В ролях: Мэрил Стрип, Ширли МакЛейн, Деннис Куэйд, Джин Хэкмен, Ричард Дрейфусс, Роб Райнер, Мэри Уикс, Конрад Бэйн, Аннетт Бенинг, Саймон Кэллоу
Описание: Поставленный по автобиографическому бестселлеру Кэрри Фишер, фильм является остроумным и резким "моментальным снимком" Голливуда. Стрип выступает в роли Сюзанн Вэйл, колючей и ранимой актрисы, решившей одним рывком поправить свою пошатнувшуюся карьеру. Ее мать, стареющая кинозвезда (МакЛейн), олицетворяет собой голливудских примадонн уходящей эпохи. Куэйд, Райнер и другие актеры изображают когорту "бывших" и тех, кто еще только находится на подступах к славе и богатству. Стрип получила номинацию на "Оскара", песня "I m Checking Out" также выдвигалась на "Оскара". (Иванов М.)
Доп. информация: Оцифровка VHS (личный архив) и получение VHSRip alenavova
Эксклюзив для rutracker.org. При размещении данного релиза на других сайтах ссылка на автора alenavova обязательна.

Релиз
Сэмпл: https://yadi.sk/i/I2G-QSzdjk7tk
Качество видео: VHSRip
Формат видео: AVI
Видео: 704x528 (1.33:1), 25 fps, XviD build 50 ~1722 kbps avg, 0.19 bit/pixel
Аудио: 48 kHz, AC3 Dolby Digital, 2/0 (L,R) ch, ~192 kbps

MediaInfo

Картинки с края пропасти - Postcards from the Edge (by alenavova).avi
Format : AVI
Format/Info : Audio Video Interleave
File size : 1.37 GiB
Duration : 1h 41mn
Overall bit rate : 1 924 Kbps
Movie name : Картинки с края пропасти - Postcards from the Edge (by alenavova)
Director : by alenavova
Writing application : VirtualDubMod 1.5.10.3 | www.virtualdub-fr.org || (build 2550/release)
Copyright : Edich2
Comment : Rutracker.org
Video
ID : 0
Format : MPEG-4 Visual
Format profile : Advanced Simple@L5
Format settings, BVOP : 1
Format settings, QPel : No
Format settings, GMC : No warppoints
Format settings, Matrix : Default (MPEG)
Codec ID : XVID
Codec ID/Hint : XviD
Duration : 1h 41mn
Bit rate : 1 723 Kbps
Width : 704 pixels
Height : 528 pixels
Display aspect ratio : 4:3
Frame rate : 25.000 fps
Color space : YUV
Chroma subsampling : 4:2:0
Bit depth : 8 bits
Scan type : Progressive
Compression mode : Lossy
Bits/(Pixel*Frame) : 0.185
Stream size : 1.23 GiB (90%)
Writing library : XviD 1.2.1 (UTC 2008-12-04)
Audio
ID : 1
Format : AC-3
Format/Info : Audio Coding 3
Mode extension : CM (complete main)
Format settings, Endianness : Big
Codec ID : 2000
Duration : 1h 41mn
Bit rate mode : Constant
Bit rate : 192 Kbps
Channel(s) : 2 channels
Channel positions : Front: L R
Sampling rate : 48.0 KHz
Bit depth : 16 bits
Compression mode : Lossy
Stream size : 140 MiB (10%)
Alignment : Split accross interleaves
Interleave, duration : 40 ms (1.00 video frame)
Interleave, preload duration : 500 ms

Скриншоты


To download the content you need:
1. Download and install torrent client [for Windows] or for mobile system
2. Click on [Download]
Attention.
If the test YOU are NOT a ROBOT - does not work, then You are using an outdated browser.
Install the current browser and click on [Download]

Do not work with Yandex browser. Uploading files to them is erroneous.
Security: torrent client is allowed by Kaspersky.

[en.asmlocator.ru].t4157.torrent 
Torrent: Registered [ 2015-11-30 05:45 ] · FD37CA5083A5A867EE5D7F7B34DBD2BB40FB87AE

Download .torrent

Download

14 KB

Status: checked
Completed: 0 times
Size: 1.37 GB
terms.php
[Profile] [PM]
Display posts:    
Reply to topic

Current time is: 13-Jul 21:47

All times are UTC ± 0



You cannot post new topics in this forum
You cannot reply to topics in this forum
You cannot edit your posts in this forum
You cannot delete your posts in this forum
You cannot vote in polls in this forum
You cannot attach files in this forum
You can download files in this forum