Не отступать и не сдаваться 2: Штормовое предупреждение / Наперегонки с громом / Тигр Каратэ 2 / No Retreat, No Surrender 2: Raging Thunder / Karate Tiger 2 (Кори Юэнь / Corey Yuen) [1987, Гонконг, США, Боевик, DVDRip] AVO (Юрий Живов)

Reply to topic
DL-List and Torrent activity
Size:  1.46 GB   |    Registered:  4 years 3 months   |    Completed:  1 time

Seeder not seen: 5 months 9 days

 
   
 
 
Author Message

star21 ®

Gender: Female

Longevity: 4 years 4 months

Posts: 551945

Location: Екатеринбург

Post 30-Nov-2015 05:52

[Quote]

Не отступать и не сдаваться 2: Штормовое предупреждение (Наперегонки с громом) / No Retreat, No Surrender 2: Raging Thunder
Страна: Гонконг, США
Жанр: Боевик
Год выпуска: 1987
Продолжительность: 01:44:18.
Перевод: Авторский (одноголосый закадровый) Юрий Живов
Присутствуют вставки с переводом Дольского
Cубтитры: нет
Режиссер: Кори Юэнь / Corey Yuen
В ролях: Лорен Аведон, Макс Тэйер, Синтия Ротрок, Патра ВАнтхиванонд, Маттиас Хьюз, Нирут Сиричанья, Янг Ли Хванг, Перм Хонсакул, Chesda «Pop» Smithsuth, Грисапонг Ханвириякитичай
Описание: Скотт отправляется в Таиланд, чтобы встретиться со своей невестой Сулин и спарринг-партнером по кикбоксингу Маком. Но встреча с Сулин заканчивается кошмаром - в комнату врываются вооруженные люди и похищают ее. Скотт вместе с Маком нанимают вертолет и летят в соседнюю Камбоджу, куда увезли Сулин. К большому удивлению Скотта, пилотом вертолета оказывается его старая любовь Терри. Вместе они выясняют, что Сулин находится в плену в советско-вьетнамском тренировочном лагере, которым командует огромный и по-садистски жестокий полковник Юрий. Отважные американские кикбоксеры сходятся в смертельной схватке с советскими спецназовцами...
Доп. информация: Дорожка с Ю. Живовым ремастерирована, синхронизирована, преобразована в СТЕРЕО и наложена ale_x2008 при помощи iZotope RX2, Sony Vegas и VirtualDubMod.
За оцифрованную с VHS дорожку благодарим - alenavova

Релиз
Сэмпл: https://yadi.sk/i/C8qt92Kyjkwgk
Качество видео: DVDRip
Формат видео: AVI
Видео: XviD build 47, 720x544 (1.32:1), 25.00 fps, 1800 kbps avg, 0.18 bit/pixel
Аудио: AC3 Dolby Digital, 48000Hz, 2/0 (L,R) ch (stereo), 192.00 kbps avg

MediaInfo

Не отступать и не сдаваться 2 - Штормовое предупреждение - No Retreat, No Surrender 2 - Raging Thunder (by ale_x2008).avi
Format : AVI
Format/Info : Audio Video Interleave
File size : 1.46 GiB
Duration : 1h 44mn
Overall bit rate : 2 002 Kbps
Movie name : Не отступать и не сдаваться 2 - Штормовое предупреждение - No Retreat, No Surrender 2 - Raging Thunder (by ale_x2008)
Director : by ale_x2008
Writing application : VirtualDubMod 1.5.10.3 (build 2550/release)
Copyright : Edich2
Comment : RuTracker.org
Video
ID : 0
Format : MPEG-4 Visual
Format profile : Advanced Simple@L5
Format settings, BVOP : 1
Format settings, QPel : No
Format settings, GMC : No warppoints
Format settings, Matrix : Custom
Codec ID : XVID
Codec ID/Hint : XviD
Duration : 1h 44mn
Bit rate : 1 800 Kbps
Width : 720 pixels
Height : 544 pixels
Display aspect ratio : 4:3
Frame rate : 25.000 fps
Color space : YUV
Chroma subsampling : 4:2:0
Bit depth : 8 bits
Scan type : Progressive
Compression mode : Lossy
Bits/(Pixel*Frame) : 0.184
Stream size : 1.31 GiB (90%)
Writing library : XviD 1.2.0.dev47 (UTC 2006-11-01)
Audio
ID : 1
Format : AC-3
Format/Info : Audio Coding 3
Mode extension : CM (complete main)
Format settings, Endianness : Big
Codec ID : 2000
Duration : 1h 44mn
Bit rate mode : Constant
Bit rate : 192 Kbps
Channel(s) : 2 channels
Channel positions : Front: L R
Sampling rate : 48.0 KHz
Bit depth : 16 bits
Compression mode : Lossy
Stream size : 143 MiB (10%)
Alignment : Split accross interleaves
Interleave, duration : 40 ms (1.00 video frame)
Interleave, preload duration : 500 ms

Скриншоты


To download the content you need:
1. Download and install torrent client [for Windows] or for mobile system
2. Click on [Download]
Attention.
If the test YOU are NOT a ROBOT - does not work, then You are using an outdated browser.
Install the current browser and click on [Download]

Do not work with Yandex browser. Uploading files to them is erroneous.
Security: torrent client is allowed by Kaspersky.

[en.asmlocator.ru].t4156.torrent 
Torrent: Registered [ 2015-11-30 05:45 ] · ED1B73898CE7E7FB881CDC8E20DA204E6D095F10

Download .torrent

Download

15 KB

Status: checked
Completed: 1 times
Size: 1.46 GB
terms.php
[Profile] [PM]
Display posts:    
Reply to topic

Current time is: 28-Mar 22:52

All times are UTC ± 0



You cannot post new topics in this forum
You cannot reply to topics in this forum
You cannot edit your posts in this forum
You cannot delete your posts in this forum
You cannot vote in polls in this forum
You cannot attach files in this forum
You can download files in this forum
Верим фактам, а не вранью Путина! Факт, что Правительство ведёт Россию к истреблению.
Так как численность населения падает, даже не смотря на приток эмигрантов!
Русская нация вымирает и вырождается, смешиваясь с эмигрантами!
Факт, что военных и граждан предприятий заставляют голосовать за партию Единая Россия и Путина
ПОД СТРАХОМ УВОЛЬНЕНИЯ!
Нам не нужно Правительство, блокирующее личную жизнь, интернет, нарушающее сохранность данных.
Все эти действия финансируются за счёт народа!