Резиновый Тарзан / Gummi-Tarzan / Rubber Tarzan (Сорен Краг-Якобсен / Søren Kragh-Jacobsen) [1981, Дания, драма, семейный, DVDRip] VO + Sub Rus + Original Dan

Reply to topic
DL-List and Torrent activity
Size:  824 MB   |    Registered:  4 years 4 months   |    Completed:  0 times

Seeder not seen: Never

 
   
 
 
Author Message

star21 ®

Gender: Female

Longevity: 4 years 5 months

Posts: 551945

Location: Екатеринбург

Post 30-Nov-2015 05:52

[Quote]

Резиновый Тарзан / Gummi-Tarzan / Rubber Tarzan
Страна: Дания
Жанр: драма, семейный
Год выпуска: 1981
Продолжительность: 01:25:48
Перевод: Одноголосый закадровый
Cубтитры: русские
Оригинальная аудиодорожка: датский
Режиссер: Сорен Краг-Якобсен /Søren Kragh-Jacobsen
В ролях: Отто Бранденбург, Алекс Сванбьерг, Петер Шредер, Сусанна Хайнрих, Йенс Оккинг и др.
Описание: Иван Олсен — одинокий восьмилетний мальчишка, над которым почти каждый день издеваются старшие ребята в школе. Даже папа Ивана несколько пренебрежителен с сыном, считая его слабаком и неумёхой. Но Иван всего лишь юный мечтатель и фантазер, которому нужно немного понимания. И мальчик находит себе родственную душу в лице добродушного и одинокого крановщика Оле.
Доп. информация: Озвучку и субтитры взял , спасибо viktor_2838.
Сэмпл: http://multi-up.com/1071547

Качество видео: DVDRip -
Формат видео: AVI
Видео: 656x368 (1.78:1), 25 fps, XviD, 1077 kbps, 0.18 bit/pixel
Аудио: 48 kHz, MPEG Layer 3, 2 ch, 128.00 kbps, VO

MediaInfo

General
Complete name : E:\Раздачи\rutracker.org\Rezinovyi_Tarzan_745_by_max1wq\Rezinovyi_Tarzan_745_by_max1wq.avi
Format : AVI
Format/Info : Audio Video Interleave
File size : 746 MiB
Duration : 1h 25mn
Overall bit rate : 1 215 Kbps
Writing application : VirtualDubMod 1.5.10.2 (build 2540/release)
Writing library : VirtualDubMod build 2540/release
Video
ID : 0
Format : MPEG-4 Visual
Format profile : Advanced Simple@L5
Format settings, BVOP : 1
Format settings, QPel : No
Format settings, GMC : No warppoints
Format settings, Matrix : Custom
Codec ID : XVID
Codec ID/Hint : XviD
Duration : 1h 25mn
Bit rate : 1 078 Kbps
Width : 656 pixels
Height : 368 pixels
Display aspect ratio : 16:9
Frame rate : 25.000 fps
Color space : YUV
Chroma subsampling : 4:2:0
Bit depth : 8 bits
Scan type : Progressive
Compression mode : Lossy
Bits/(Pixel*Frame) : 0.179
Stream size : 661 MiB (89%)
Writing library : XviD 73
Audio
ID : 1
Format : MPEG Audio
Format version : Version 1
Format profile : Layer 3
Codec ID : 55
Codec ID/Hint : MP3
Duration : 1h 25mn
Bit rate mode : Constant
Bit rate : 128 Kbps
Channel(s) : 2 channels
Sampling rate : 48.0 KHz
Compression mode : Lossy
Stream size : 78.6 MiB (11%)
Alignment : Aligned on interleaves
Interleave, duration : 40 ms (1.00 video frame)
Interleave, preload duration : 504 ms
General
Complete name : E:\Раздачи\rutracker.org\Rezinovyi_Tarzan_745_by_max1wq\Rezinovyi_Tarzan_745_by_max1wq.srt
Format : SubRip
File size : 44.5 KiB
Text
Format : SubRip
Compression mode : Lossless
General
Complete name : E:\Раздачи\rutracker.org\Rezinovyi_Tarzan_745_by_max1wq\Rezinovyi_Tarzan_745_by_max1wq_Eng.mp3
Format : MPEG Audio
File size : 78.6 MiB
Duration : 1h 25mn
Overall bit rate mode : Constant
Overall bit rate : 128 Kbps
Genre : Blues
Audio
Format : MPEG Audio
Format version : Version 1
Format profile : Layer 3
Duration : 1h 25mn
Bit rate mode : Constant
Bit rate : 128 Kbps
Channel(s) : 2 channels
Sampling rate : 48.0 KHz
Compression mode : Lossy
Stream size : 78.6 MiB (100%)

To download the content you need:
1. Download and install torrent client [for Windows] or for mobile system
2. Click on [Download]
Attention.
If the test YOU are NOT a ROBOT - does not work, then You are using an outdated browser.
Install the current browser and click on [Download]

Do not work with Yandex browser. Uploading files to them is erroneous.
Security: torrent client is allowed by Kaspersky.

[en.asmlocator.ru].t4153.torrent 
Torrent: Registered [ 2015-11-30 05:45 ] · 50C6A514E6FEAAD8316CD7FC0708CD734CCBCA0A

Download .torrent

Download

17 KB

Status: checked
Completed: 0 times
Size: 824 MB
terms.php
[Profile] [PM]
Display posts:    
Reply to topic

Current time is: 10-Apr 09:38

All times are UTC ± 0



You cannot post new topics in this forum
You cannot reply to topics in this forum
You cannot edit your posts in this forum
You cannot delete your posts in this forum
You cannot vote in polls in this forum
You cannot attach files in this forum
You can download files in this forum
Верим фактам, а не вранью Путина! Факт, что Правительство ведёт Россию к истреблению.
Так как численность населения падает, даже не смотря на приток эмигрантов!
Русская нация вымирает и вырождается, смешиваясь с эмигрантами!
Факт, что военных и граждан предприятий заставляют голосовать за партию Единая Россия и Путина
ПОД СТРАХОМ УВОЛЬНЕНИЯ!
Нам не нужно Правительство, блокирующее личную жизнь, интернет, нарушающее сохранность данных.
Все эти действия финансируются за счёт народа!