Месть / Revenge (Тони Скотт / Tony Scott) [1990, США, Мексика, Драма, боевик, BDRip] [Театральная версия / Theatrical Cut] MVO (R5) + Dub + Original Eng + subs (Rus, Eng)

Reply to topic
DL-List and Torrent activity
Size:  2.18 GB   |    Registered:  4 years 4 months   |    Completed:  0 times

Seeder not seen: Never

 
   
 
 
Author Message

star21 ®

Gender: Female

Longevity: 4 years 4 months

Posts: 551945

Location: Екатеринбург

Post 30-Nov-2015 05:52

[Quote]

Месть / Revenge- Год выпуска: 1990
Страна: США, Мексика
Жанр: Драма, боевик
Продолжительность: 02:04:01
Перевод: Профессиональный (многоголосый, закадровый) R5
+ Профессиональный (полное дублирование)
+ Оригинальная звуковая дорожка
Субтитры: Русские, Английские (внешние srt*)-Режиссер: Тони Скотт / Tony Scott
В ролях: Кевин Костнер, Мэделин Стоу, Энтони Куинн, Хоакин Мартинес, Мигель Феррер, Томас Милиан, Джеймс Гэммон, Джон Легуизамо, Джесси Корти, Сэлли Кёркленд
О фильме: Джей Кокрэн, летчик ВВС США, уволившись из армии, принимает приглашение старого приятеля Тибурона Мендеса, мексиканского латифундиста, политика и, вероятно, крупного мафиози.
Приехав в гости в Мексику, где, впрочем, Кокрэн приобрел небольшую хижину в уединенном горном уголке, и встретив молодую и красивую Мирию, жену Мендеса, он, забыв об опасности, отдается вспыхнувшему страстному чувству.-Релиз:
Автор: kingsize87
Качество: BDRip (источник: krat11 / BD-Remux / 1080p)
Формат: AVI
Видео: 720x304 (2.37:1), 23,976 fps, XviD build 65 ~1935 kbps avg, 0.37 bit/pixel
Аудио #1: 48 kHz, AC3 Dolby Digital, 2/0 (L,R), ~192.00 kbps avg mvo
Аудио #2: 48 kHz, AC3 Dolby Digital, 2/0 (L,R), ~192.00 kbps avg dub
Аудио #3: 48 kHz, AC3 Dolby Digital, 2/0 (L,R), ~192.00 kbps avg eng
Размер: 2232.87 Mb (1/2 DVD-R)
Скачать: Семпл-

Кадры из фильма


-

Mi

Формат : AVI
Формат/Информация : Audio Video Interleave
Профиль формата : OpenDML
Размер файла : 2,18 Гбайт
Продолжительность : 2 ч. 4 м.
Общий поток : 2517 Кбит/сек
Название фильма : Месть / Revenge [Театральная версия / Theatrical Cut] (1990) BDRip
Режиссёр : kingsize87
Программа кодирования : VirtualDubMod 1.5.10.2 (build 2540/release)
Библиотека кодирования : VirtualDubMod build 2540/release
Правообладатель : HQCLUB
Примечание : 16.10.2015
Видео
Идентификатор : 0
Формат : MPEG-4 Visual
Профиль формата : Advanced Simple@L5
Параметр BVOP формата : 1
Параметр QPel формата : Нет
Параметр GMC формата : Без точки перехода
Параметр матрицы формата : Выборочная
Идентификатор кодека : XVID
Идентификатор кодека/Подсказка : XviD
Продолжительность : 2 ч. 4 м.
Битрейт : 1918 Кбит/сек
Ширина : 720 пикселей
Высота : 304 пикселя
Соотношение сторон : 2,35:1
Частота кадров : 23,976 кадра/сек
Цветовое пространство : YUV
Субдискретизация насыщенности : 4:2:0
Битовая глубина : 8 бит
Тип развёртки : Прогрессивная
Метод сжатия : С потерями
Бит/(Пиксели*Кадры) : 0.365
Размер потока : 1,66 Гбайт (76%)
Библиотека кодирования : XviD 66
Аудио #1
Идентификатор : 1
Формат : AC-3
Формат/Информация : Audio Coding 3
Расширение режима : CM (complete main)
Параметр Endianness формата : Big
Идентификатор кодека : 2000
Продолжительность : 2 ч. 3 м.
Вид битрейта : Постоянный
Битрейт : 192 Кбит/сек
Каналы : 2 канала
Расположение каналов : Front: L R
Частота : 48,0 КГц
Битовая глубина : 16 бит
Метод сжатия : С потерями
Размер потока : 170 Мбайт (8%)
Выравнивание : Разделение по промежуткам
Продолжительность промежутка : 42 мс. (1,00 видеокадр)
Время предзагрузки промежутка : 500 мс.
Аудио #2
Идентификатор : 2
Формат : AC-3
Формат/Информация : Audio Coding 3
Расширение режима : CM (complete main)
Параметр Endianness формата : Big
Идентификатор кодека : 2000
Продолжительность : 2 ч. 3 м.
Вид битрейта : Постоянный
Битрейт : 192 Кбит/сек
Каналы : 2 канала
Расположение каналов : Front: L R
Частота : 48,0 КГц
Битовая глубина : 16 бит
Метод сжатия : С потерями
Размер потока : 170 Мбайт (8%)
Выравнивание : Разделение по промежуткам
Продолжительность промежутка : 42 мс. (1,00 видеокадр)
Время предзагрузки промежутка : 500 мс.
Аудио #3
Идентификатор : 3
Формат : AC-3
Формат/Информация : Audio Coding 3
Расширение режима : CM (complete main)
Параметр Endianness формата : Big
Идентификатор кодека : 2000
Продолжительность : 2 ч. 4 м.
Вид битрейта : Постоянный
Битрейт : 192 Кбит/сек
Каналы : 2 канала
Расположение каналов : Front: L R
Частота : 48,0 КГц
Битовая глубина : 16 бит
Метод сжатия : С потерями
Размер потока : 170 Мбайт (8%)
Выравнивание : Разделение по промежуткам
Продолжительность промежутка : 42 мс. (1,00 видеокадр)
Время предзагрузки промежутка : 500 мс.
-

To download the content you need:
1. Download and install torrent client [for Windows] or for mobile system
2. Click on [Download]
Attention.
If the test YOU are NOT a ROBOT - does not work, then You are using an outdated browser.
Install the current browser and click on [Download]

Do not work with Yandex browser. Uploading files to them is erroneous.
Security: torrent client is allowed by Kaspersky.

[en.asmlocator.ru].t4152.torrent 
Torrent: Registered [ 2015-11-30 05:45 ] · 7ED2F9A6B668722DF49070AB47B37A8775D53D12

Download .torrent

Download

12 KB

Status: checked
Completed: 0 times
Size: 2.18 GB
terms.php
[Profile] [PM]
Display posts:    
Reply to topic

Current time is: 03-Apr 05:15

All times are UTC ± 0



You cannot post new topics in this forum
You cannot reply to topics in this forum
You cannot edit your posts in this forum
You cannot delete your posts in this forum
You cannot vote in polls in this forum
You cannot attach files in this forum
You can download files in this forum
Верим фактам, а не вранью Путина! Факт, что Правительство ведёт Россию к истреблению.
Так как численность населения падает, даже не смотря на приток эмигрантов!
Русская нация вымирает и вырождается, смешиваясь с эмигрантами!
Факт, что военных и граждан предприятий заставляют голосовать за партию Единая Россия и Путина
ПОД СТРАХОМ УВОЛЬНЕНИЯ!
Нам не нужно Правительство, блокирующее личную жизнь, интернет, нарушающее сохранность данных.
Все эти действия финансируются за счёт народа!