Убийственное лето / L\'été meurtrier (Жан Бекер /Jean Becker) [1983, Франция, Драма, детектив, BDRip] MVO

Reply to topic
DL-List and Torrent activity
Size:  1.47 GB   |    Registered:  4 years 7 months   |    Completed:  0 times

Seeder not seen: 2 years 5 months

 
   
 
 
Author Message

star21 ®

Gender: Female

Longevity: 4 years 8 months

Posts: 551945

Location: Екатеринбург

Post 30-Nov-2015 05:52

[Quote]

Убийственное лето / L'été meurtrier- Страна: Франция
Жанр: Драма, детектив
Год выпуска: 1983
Продолжительность: 02:13:30-Перевод: Профессиональный (многоголосый закадровый)
Cубтитры: нет-Режиссер: Жан Бекер /Jean Becker-В ролях: Изабель Аджани, Ален Сушон, Сюзанн Флон, Женни Клев, Мария Машадо, Эвелин Диди, Жан Гавен, Франсуа Клюзе, Манюэль Желен, Роже Карель-Описание: 19-летняя Элеана с умопомрачительной фигурой Аджани очаровывает и раздражает своим независимым характером жителей деревушки в Провансе. Обольстительная красотка заводит роман с простодушным автомехаником, но её вызывающее поведение не по нраву родственникам жениха. Закрученный сюжет постепенно проясняет комплексы бесстрашной Элеаны, мечтающей о страшной мести. Ведь рождение героини было связано с кошмарным преступлением в отношении её матери. Желая возмездия, Элеана подставляет невинных жертв, а расплатой за кошмарное прошлое становится безумное настоящее.-Sample | [imdb]http://www.imdb.com/title/tt0086655[/imdb] | КиноПоиск-Тип релиза: BDRip [исх. спасибо ]
Формат видео: AVI-Видео: 688x416 (1.65:1), 23.976 fps, XviD build 50, 1370 kbps avg, 0.20 bit/pixel
Аудио: 48 kHz, AC3 Dolby Digital, 2/0 (L,R) ch, 192.00 kbps avg [Russian_MVO]-Релиз группы:-

Сравнение скриншотов

http://screenshotcomparison.com/comparison/147075/picture:0
Не для поглощения - разное наполнение кадра

MediaInfo

General
Complete name : D:\Мои релизы\L'ete meurtrier_BDRip_RG_All_Films.avi
Format : AVI
Format/Info : Audio Video Interleave
File size : 1.47 GiB
Duration : 2h 13mn
Overall bit rate : 1 572 Kbps
Writing application : VirtualDubMod 1.5.10.3 | www.virtualdub-fr.org || (build 2550/release)
Writing library : VirtualDubMod build 2550/release
Video
ID : 0
Format : MPEG-4 Visual
Format profile : Advanced Simple@L5
Format settings, BVOP : Yes
Format settings, QPel : No
Format settings, GMC : No warppoints
Format settings, Matrix : Custom
Codec ID : XVID
Codec ID/Hint : XviD
Duration : 2h 13mn
Bit rate : 1 371 Kbps
Width : 688 pixels
Height : 416 pixels
Display aspect ratio : 1.654
Frame rate : 23.976 fps
Color space : YUV
Chroma subsampling : 4:2:0
Bit depth : 8 bits
Scan type : Progressive
Compression mode : Lossy
Bits/(Pixel*Frame) : 0.200
Stream size : 1.28 GiB (87%)
Writing library : XviD 1.2.1 (UTC 2008-12-04)
Audio
ID : 1
Format : AC-3
Format/Info : Audio Coding 3
Mode extension : CM (complete main)
Codec ID : 2000
Duration : 2h 13mn
Bit rate mode : Constant
Bit rate : 192 Kbps
Channel(s) : 2 channels
Channel positions : Front: L R
Sampling rate : 48.0 KHz
Bit depth : 16 bits
Compression mode : Lossy
Stream size : 183 MiB (12%)
Alignment : Split accross interleaves
Interleave, duration : 42 ms (1.00 video frame)
Interleave, preload duration : 500 ms

Скриншоты

To download the content you need:
1. Download and install torrent client [for Windows] or for mobile system
2. Click on [Download]
Attention.
If the test YOU are NOT a ROBOT - does not work, then You are using an outdated browser.
Install the current browser and click on [Download]

Do not work with Yandex browser. Uploading files to them is erroneous.
Security: torrent client is allowed by Kaspersky.

[en.asmlocator.ru].t4151.torrent 
Torrent: Registered [ 2015-11-30 05:45 ] · 613CE45009F1B2617D30BC3EAFFFF405294CB213

Download .torrent

Download

15 KB

Status: checked
Completed: 0 times
Size: 1.47 GB
terms.php
[Profile] [PM]
Display posts:    
Reply to topic

Current time is: 13-Jul 00:58

All times are UTC ± 0



You cannot post new topics in this forum
You cannot reply to topics in this forum
You cannot edit your posts in this forum
You cannot delete your posts in this forum
You cannot vote in polls in this forum
You cannot attach files in this forum
You can download files in this forum
Верим фактам, а не вранью Путина! Факт, что Правительство ведёт Россию к истреблению.
Так как численность населения падает, даже не смотря на приток эмигрантов!
Русская нация вымирает и вырождается, смешиваясь с эмигрантами!
Факт, что военных и граждан предприятий заставляют голосовать за партию Единая Россия и Путина
ПОД СТРАХОМ УВОЛЬНЕНИЯ!
Нам не нужно Правительство, блокирующее личную жизнь, интернет, нарушающее сохранность данных.
Все эти действия финансируются за счёт народа!