Терминатор / The Terminator (Джеймс Камерон / James Cameron) [1984, Великобритания, США, фантастика, боевик, BDRip] MVO (ОРТ) + MVO (Первый канал) + MVO (Гемини Фильм) + AVO (Юрий Сербин) + AVO (Василий Горчаков) + Original Eng + Sub Rus, Eng

Reply to topic
DL-List and Torrent activity
Size:  3.2 GB   |    Registered:  4 years 7 months   |    Completed:  0 times

Seeder not seen: 1 year 4 months

 
   
 
 
Author Message

star21 ®

Gender: Female

Longevity: 4 years 8 months

Posts: 551945

Location: Екатеринбург

Post 30-Nov-2015 05:52

[Quote]

Терминатор / The Terminator- Страна: Великобритания, США
Жанр: фантастика, боевик
Год выпуска: 1984
Продолжительность: 01:47:26
Перевод: Профессиональный (многоголосый закадровый) ОРТ
Перевод 2: Профессиональный (многоголосый закадровый) Первый канал
Перевод 3: Профессиональный (многоголосый закадровый) Гемини Фильм
Перевод 4: Авторский (одноголосый закадровый) Юрий Сербин
Перевод 5: Авторский (одноголосый закадровый) Василий Горчаков
Cубтитры: русские (полные 3 вида, форсированные), английские
Оригинальная аудиодорожка: английский
Режиссер: Джеймс Камерон / James Cameron
В ролях: Арнольд Шварценеггер (Terminator), Майкл Бин (Kyle Reese), Линда Хэмилтон (Sarah Connor), Пол Уинфилд (Lieutenant Ed Traxler), Лэнс Хенриксен (Detective Hal Vukovich), Рик Россович (Matt Buchanan), Бесс Мотта (Ginger Ventura), Эрл Боэн (Dr. Peter Silberman), Дик Миллер (Pawn Shop Clerk), Шоун Шеппс (Nancy), Брюс М. Кернер (Desk Sergeant), Франко Колумбу (Future Terminator)
Описание: В центре сюжета - противостояние солдата Кайла Риза и киборга-терминатора, прибывших в 1984-ый год из пост-апокалиптического будущего, где миром правят машины-убийцы, а человечество находится на грани вымирания. Цель киборга: убить девушку по имени Сара Коннор, чей ещё нерождённый сын к 2029 году выиграет войну человечества с машинами. Цель солдата Кайла Риза: спасти Сару и остановить Терминатора любой ценой.
Автор: Sem-te

Качество видео: BDRip (Исходник: Skazhutin / BD-Remux)
Формат видео: AVI
Видео: 704x384 (1.83:1), 23.976 fps, XviD build 73 ~1550 kbps avg, 0.24 bit/pixel
Аудио: 48 kHz, AC3 Dolby Digital, 3/2 (L,C,R,l,r) + LFE ch, ~448 kbps | ОРТ (Селена Интернешнл)
Аудио 2: 48 kHz, AC3 Dolby Digital, 3/2 (L,C,R,l,r) + LFE ch, ~448 kbps | Первый канал (Останкино)
Аудио 3: 48 kHz, AC3 Dolby Digital, 3/2 (L,C,R,l,r) + LFE ch, ~448 kbps | Гемини Фильм
Аудио 4: 48 kHz, AC3 Dolby Digital, 3/2 (L,C,R,l,r) + LFE ch, ~448 kbps | Юрий Сербин (отдельно)
Аудио 5: 48 kHz, AC3 Dolby Digital, 3/2 (L,C,R,l,r) + LFE ch, ~448 kbps | Василий Горчаков (отдельно)
Аудио 6: 48 kHz, AC3 Dolby Digital, 3/2 (L,C,R,l,r) + LFE ch, ~448 kbps | Eng (отдельно)

MediaInfo

Общее
Формат : AVI
Формат/Информация : Audio Video Interleave
Профиль формата : OpenDML
Размер файла : 2,19 Гбайт
Продолжительность : 1 ч. 47 м.
Общий поток : 2917 Кбит/сек
Программа кодирования : VirtualDubMod 1.5.10.2 (build 2540/release)
Библиотека кодирования : VirtualDubMod build 2540/release
Видео
Идентификатор : 0
Формат : MPEG-4 Visual
Профиль формата : Advanced Simple@L5
Параметр BVOP формата : 1
Параметр QPel формата : Нет
Параметр GMC формата : Без точки перехода
Параметр матрицы формата : Выборочная
Идентификатор кодека : XVID
Идентификатор кодека/Подсказка : XviD
Продолжительность : 1 ч. 47 м.
Битрейт : 1550 Кбит/сек
Ширина : 704 пикселя
Высота : 384 пикселя
Соотношение сторон : 1,85:1
Частота кадров : 23,976 кадра/сек
Цветовое пространство : YUV
Субдискретизация насыщенности : 4:2:0
Битовая глубина : 8 бит
Тип развёртки : Прогрессивная
Метод сжатия : С потерями
Бит/(Пиксели*Кадры) : 0.239
Размер потока : 1,16 Гбайт (53%)
Библиотека кодирования : XviD 73
Аудио #1
Идентификатор : 1
Формат : AC-3
Формат/Информация : Audio Coding 3
Расширение режима : CM (complete main)
Параметр Endianness формата : Big
Идентификатор кодека : 2000
Продолжительность : 1 ч. 47 м.
Вид битрейта : Постоянный
Битрейт : 448 Кбит/сек
Каналы : 6 каналов
Расположение каналов : Front: L C R, Side: L R, LFE
Частота : 48,0 КГц
Битовая глубина : 16 бит
Метод сжатия : С потерями
Размер потока : 344 Мбайт (15%)
Выравнивание : Соединение по промежуткам
Продолжительность промежутка : 42 мс. (1,00 видеокадр)
Время предзагрузки промежутка : 512 мс.
Аудио #2
Идентификатор : 2
Формат : AC-3
Формат/Информация : Audio Coding 3
Расширение режима : CM (complete main)
Параметр Endianness формата : Big
Идентификатор кодека : 2000
Продолжительность : 1 ч. 47 м.
Вид битрейта : Постоянный
Битрейт : 448 Кбит/сек
Каналы : 6 каналов
Расположение каналов : Front: L C R, Side: L R, LFE
Частота : 48,0 КГц
Битовая глубина : 16 бит
Метод сжатия : С потерями
Размер потока : 344 Мбайт (15%)
Выравнивание : Разделение по промежуткам
Продолжительность промежутка : 42 мс. (1,00 видеокадр)
Время предзагрузки промежутка : 500 мс.
Аудио #3
Идентификатор : 3
Формат : AC-3
Формат/Информация : Audio Coding 3
Расширение режима : CM (complete main)
Параметр Endianness формата : Big
Идентификатор кодека : 2000
Продолжительность : 1 ч. 47 м.
Вид битрейта : Постоянный
Битрейт : 448 Кбит/сек
Каналы : 6 каналов
Расположение каналов : Front: L C R, Side: L R, LFE
Частота : 48,0 КГц
Битовая глубина : 16 бит
Метод сжатия : С потерями
Размер потока : 344 Мбайт (15%)
Выравнивание : Разделение по промежуткам
Продолжительность промежутка : 42 мс. (1,00 видеокадр)
Время предзагрузки промежутка : 500 мс.

Скриншоты

To download the content you need:
1. Download and install torrent client [for Windows] or for mobile system
2. Click on [Download]
Attention.
If the test YOU are NOT a ROBOT - does not work, then You are using an outdated browser.
Install the current browser and click on [Download]

Do not work with Yandex browser. Uploading files to them is erroneous.
Security: torrent client is allowed by Kaspersky.

[en.asmlocator.ru].t4149.torrent 
Torrent: Registered [ 2015-11-30 05:45 ] · 108BF2863D2CEBDCEB16AB1B0CB439DED3E19BF5

Download .torrent

Download

17 KB

Status: checked
Completed: 0 times
Size: 3.2 GB
terms.php
[Profile] [PM]
Display posts:    
Reply to topic

Current time is: 13-Jul 20:44

All times are UTC ± 0



You cannot post new topics in this forum
You cannot reply to topics in this forum
You cannot edit your posts in this forum
You cannot delete your posts in this forum
You cannot vote in polls in this forum
You cannot attach files in this forum
You can download files in this forum