Вспомнить всё / Возвращение памяти / Total Recall (Пол Верховен / Paul Verhoeven) [1990, США, фантастика, боевик, DVDRip] [FullScreen] AVO (Андрей Гаврилов (ранний)) + AVO (Василий Горчаков) + AVO (Андрей Гаврилов (поздний)) + AVO (Юрий Живов)

Reply to topic
DL-List and Torrent activity
Size:  2.07 GB   |    Registered:  4 years 3 months   |    Completed:  1 time

Seeder not seen: 3 months 11 days

 
   
 
 
Author Message

star21 ®

Gender: Female

Longevity: 4 years 4 months

Posts: 551945

Location: Екатеринбург

Post 30-Nov-2015 05:52

[Quote]

Вспомнить всё / Возвращение памяти / Total Recall / Full Screen
Страна: США
Жанр: фантастика, боевик
Год выпуска: 1990
Продолжительность: 01:52:52
-
Перевод 1: Авторский (одноголосый закадровый) Андрей Гаврилов (ранний)
Перевод 2: Авторский (одноголосый закадровый) Василий Горчаков
Перевод 3: Авторский (одноголосый закадровый) Андрей Гаврилов (поздний)
Перевод 4: Авторский (одноголосый закадровый) Юрий Живов
Cубтитры: нет
-
Режиссер: Пол Верховен / Paul Verhoeven
В ролях: Арнольд Шварценеггер, Шэрон Стоун, Рэйчел Тикотин, Ронни Кокс, Майкл Айронсайд, Маршалл Белл, Мэл Джонсон мл., Майкл Чемпион, Рэй Бэйкер, Алексия Робинсон, Дин Норрис
-
Описание: Жизнь простого рабочего парня Дага Куэйда скучна и однообразна, но каждую ночь ему снится Марс и очаровательная брюнетка. Поэтому он решает воспользоваться услугами компании Реколл, которая за определенную плату имлантирует ему воспоминания, создающие полную иллюзию того, что он путешествует на Марс с выбранной новой личностью и массой увлекательных приключений по пути. Все бы хорошо, но после сеанса имплантации воспоминаний Дагу совершенно невозможно понять, кто же он на самом деле - простой работяга или спецназовец, владеющий всеми видами оружия и боевых искусств. Его боятся, его хотят убить, на него открыт сезон охоты; даже любимая жена пытается свернуть ему шею. Теперь, чтобы выжить, ему необходимо вспомнить, вспомнить все...
-
Доп. информация: [imdb]http://www.imdb.com/title/tt0100802[/imdb] (Спасибо lohhnes) 2-ая дорожка (спасибо Donkihot) 3 и 4 дорожки с рутора с раздачи HQCLUB.
-
Сэмпл: http://sendfile.su/1165767
-
Качество видео: DVDRip (DVD5/cinephil)
Формат видео: AVI
Видео: 624x464 (1.34:1), 23.976 fps, XviD build 65 ~1523 kbps avg, 0.22 bit/pixel
Аудио 1: 48 kHz, AC3 Dolby Digital, 2/0 (L,R) ch, ~128 kbps Гаврилов (ранний)
Аудио 2: 48 kHz, AC3 Dolby Digital, 2/0 (L,R) ch, ~192 kbps Горчаков
Аудио 3: 48 kHz, AC3 Dolby Digital, 3/2 (L,C,R,l,r) + LFE ch, ~384 kbps Гаврилов (поздний) Отдельно
Аудио 4: 48 kHz, AC3 Dolby Digital, 3/2 (L,C,R,l,r) + LFE ch, ~384 kbps Живов Отдельно

MediaInfo

General
Complete name : C:\Users\ALEX\Downloads\Фильмы\Total Recall.Full Screen.1990.DUALRUS.DVDRip.XviD.AC3\Total Recall.Full Screen.1990.DUALRUS.DVDRip.XviD.AC3.avi
Format : AVI
Format/Info : Audio Video Interleave
File size : 1.46 GiB
Duration : 1h 52mn
Overall bit rate : 1 858 Kbps
Writing application : VirtualDubMod 1.5.10.2 (build 2542/release)
Writing library : VirtualDubMod build 2542/release
Video
ID : 0
Format : MPEG-4 Visual
Format profile : Advanced Simple@L5
Format settings, BVOP : 1
Format settings, QPel : No
Format settings, GMC : No warppoints
Format settings, Matrix : Custom
Codec ID : XVID
Codec ID/Hint : XviD
Duration : 1h 52mn
Bit rate : 1 524 Kbps
Width : 624 pixels
Height : 464 pixels
Display aspect ratio : 4:3
Frame rate : 23.976 fps
Color space : YUV
Chroma subsampling : 4:2:0
Bit depth : 8 bits
Scan type : Progressive
Compression mode : Lossy
Bits/(Pixel*Frame) : 0.219
Stream size : 1.20 GiB (82%)
Writing library : XviD 65
Audio #1
ID : 1
Format : AC-3
Format/Info : Audio Coding 3
Mode extension : CM (complete main)
Format settings, Endianness : Big
Codec ID : 2000
Duration : 1h 52mn
Bit rate mode : Constant
Bit rate : 128 Kbps
Channel(s) : 2 channels
Channel positions : Front: L R
Sampling rate : 48.0 KHz
Bit depth : 16 bits
Compression mode : Lossy
Stream size : 103 MiB (7%)
Alignment : Split accross interleaves
Interleave, duration : 42 ms (1.00 video frame)
Interleave, preload duration : 500 ms
Audio #2
ID : 2
Format : AC-3
Format/Info : Audio Coding 3
Mode extension : CM (complete main)
Format settings, Endianness : Big
Codec ID : 2000
Duration : 1h 52mn
Bit rate mode : Constant
Bit rate : 192 Kbps
Channel(s) : 2 channels
Channel positions : Front: L R
Sampling rate : 48.0 KHz
Bit depth : 16 bits
Compression mode : Lossy
Stream size : 155 MiB (10%)
Alignment : Split accross interleaves
Interleave, duration : 42 ms (1.00 video frame)
Interleave, preload duration : 500 ms

Скриншоты

To download the content you need:
1. Download and install torrent client [for Windows] or for mobile system
2. Click on [Download]
Attention.
If the test YOU are NOT a ROBOT - does not work, then You are using an outdated browser.
Install the current browser and click on [Download]

Do not work with Yandex browser. Uploading files to them is erroneous.
Security: torrent client is allowed by Kaspersky.

[en.asmlocator.ru].t4148.torrent 
Torrent: Registered [ 2015-11-30 05:45 ] · AC1F18E2246873FB9019E276CE8C159D8807A45E

Download .torrent

Download

11 KB

Status: checked
Completed: 1 times
Size: 2.07 GB
terms.php
[Profile] [PM]
Display posts:    
Reply to topic

Current time is: 29-Mar 00:15

All times are UTC ± 0



You cannot post new topics in this forum
You cannot reply to topics in this forum
You cannot edit your posts in this forum
You cannot delete your posts in this forum
You cannot vote in polls in this forum
You cannot attach files in this forum
You can download files in this forum
Верим фактам, а не вранью Путина! Факт, что Правительство ведёт Россию к истреблению.
Так как численность населения падает, даже не смотря на приток эмигрантов!
Русская нация вымирает и вырождается, смешиваясь с эмигрантами!
Факт, что военных и граждан предприятий заставляют голосовать за партию Единая Россия и Путина
ПОД СТРАХОМ УВОЛЬНЕНИЯ!
Нам не нужно Правительство, блокирующее личную жизнь, интернет, нарушающее сохранность данных.
Все эти действия финансируются за счёт народа!