Дочь мрака / Дочь тьмы / Daughter of Darkness (Стюарт Гордон / Stuart Gordon) [1990, США, Ужасы, Мистика, DVDRip] AVO (Антон Алексеев) + Original Eng

Reply to topic
DL-List and Torrent activity
Size:  1.49 GB   |    Registered:  4 years 3 months   |    Completed:  0 times

Seeder not seen: Never

 
   
 
 
Author Message

star21 ®

Gender: Female

Longevity: 4 years 4 months

Posts: 551945

Location: Екатеринбург

Post 30-Nov-2015 05:52

[Quote]

Дочь мрака / Дочь тьмы / Daughter of Darkness
Страна: США
Жанр: Ужасы, Мистика
Год выпуска: 1990
Продолжительность: 01:28:03
Перевод: Авторский (одноголосый закадровый) Антон Алексеев
Cубтитры: нет
Оригинальная аудиодорожка: английский
Режиссер: Стюарт Гордон / Stuart Gordon
В ролях: Энтони Перкинс, Миа Сара, Роберт Рейнольдс, Дежё Гараш, Джек Коулмэн, Эрика Боднар, Аттила Лете, Мари Кишш
Описание: После смерти матери Кэтрин Тэтчер отправляется на поиски своего отца в далекую и незнакомую Румынию. Бухарест встретил девушку суетливым народом, да маленькими улочками с неказистыми домишками. Странное возникшее ощущение Кэтрин сразу же решила подавить в себе. То ли город и впрямь так древен как и наполнявшие его строения, то ли болтливый таксист Макс почему-то решил по-своевольничать и предложить американке отдохнуть от шумной многоэтажной Америки.
Сэмпл: https://yadi.sk/i/Uduh7pMajqKeC
Качество видео: DVDRip [DVD5 by CG]
Формат видео: AVI
Видео: 704x528 (1.33:1), 25 fps, XviD build 50 ~2020 kbps avg, 0.22 bit/pixel
Аудио: 44.100 kHz, MPEG Layer 3, 2 ch, ~192.00 kbps avg
Аудио 2: 48 kHz, AC3 Dolby Digital, 2/0 (L,R) ch, ~192 kbps Eng

MediaInfo

Дочь мрака - Daughter of Darkness [by Edich2].avi
Format : AVI
Format/Info : Audio Video Interleave
File size : 1.49 GiB
Duration : 1h 28mn
Overall bit rate : 2 420 Kbps
Movie name : Дочь мрака - Daughter of Darkness [by Edich2]
Director : by Edich2
Writing application : VirtualDubMod 1.5.10.2 (build 2540/release)
Comment : Rutracker.org
Video
ID : 0
Format : MPEG-4 Visual
Format profile : Advanced Simple@L5
Format settings, BVOP : 1
Format settings, QPel : No
Format settings, GMC : No warppoints
Format settings, Matrix : Default (MPEG)
Codec ID : XVID
Codec ID/Hint : XviD
Duration : 1h 28mn
Bit rate : 2 022 Kbps
Width : 704 pixels
Height : 528 pixels
Display aspect ratio : 4:3
Frame rate : 25.000 fps
Color space : YUV
Chroma subsampling : 4:2:0
Bit depth : 8 bits
Scan type : Progressive
Compression mode : Lossy
Bits/(Pixel*Frame) : 0.218
Stream size : 1.24 GiB (84%)
Writing library : XviD 1.2.1 (UTC 2008-12-04)
Audio #1
ID : 1
Format : MPEG Audio
Format version : Version 1
Format profile : Layer 3
Codec ID : 55
Codec ID/Hint : MP3
Duration : 1h 28mn
Bit rate mode : Constant
Bit rate : 192 Kbps
Channel(s) : 2 channels
Sampling rate : 44.1 KHz
Compression mode : Lossy
Stream size : 121 MiB (8%)
Alignment : Split accross interleaves
Interleave, duration : 40 ms (1.00 video frame)
Interleave, preload duration : 500 ms
Writing library : LAMELAME_MAJOR_VERSI
Audio #2
ID : 2
Format : AC-3
Format/Info : Audio Coding 3
Mode extension : CM (complete main)
Format settings, Endianness : Big
Codec ID : 2000
Duration : 1h 28mn
Bit rate mode : Constant
Bit rate : 192 Kbps
Channel(s) : 2 channels
Channel positions : Front: L R
Sampling rate : 48.0 KHz
Bit depth : 16 bits
Compression mode : Lossy
Stream size : 121 MiB (8%)
Alignment : Split accross interleaves
Interleave, duration : 40 ms (1.00 video frame)
Interleave, preload duration : 500 ms

Скриншоты


To download the content you need:
1. Download and install torrent client [for Windows] or for mobile system
2. Click on [Download]
Attention.
If the test YOU are NOT a ROBOT - does not work, then You are using an outdated browser.
Install the current browser and click on [Download]

Do not work with Yandex browser. Uploading files to them is erroneous.
Security: torrent client is allowed by Kaspersky.

[en.asmlocator.ru].t4147.torrent 
Torrent: Registered [ 2015-11-30 05:45 ] · 6EDC6D19A5BD4C080AB807458899DB781663E94D

Download .torrent

Download

15 KB

Status: checked
Completed: 0 times
Size: 1.49 GB
terms.php
[Profile] [PM]
Display posts:    
Reply to topic

Current time is: 29-Mar 18:55

All times are UTC ± 0



You cannot post new topics in this forum
You cannot reply to topics in this forum
You cannot edit your posts in this forum
You cannot delete your posts in this forum
You cannot vote in polls in this forum
You cannot attach files in this forum
You can download files in this forum
Верим фактам, а не вранью Путина! Факт, что Правительство ведёт Россию к истреблению.
Так как численность населения падает, даже не смотря на приток эмигрантов!
Русская нация вымирает и вырождается, смешиваясь с эмигрантами!
Факт, что военных и граждан предприятий заставляют голосовать за партию Единая Россия и Путина
ПОД СТРАХОМ УВОЛЬНЕНИЯ!
Нам не нужно Правительство, блокирующее личную жизнь, интернет, нарушающее сохранность данных.
Все эти действия финансируются за счёт народа!