Маленькая воровка / La petite voleuse (Клод Миллер / Claude Miller) [1988, Франция, драма, DVDRip] DVO (Selena International) + Original Fre

Reply to topic
DL-List and Torrent activity
Size:  797 MB   |    Registered:  4 years 4 months   |    Completed:  0 times

Seeder not seen: 3 years

 
   
 
 
Author Message

star21 ®

Gender: Female

Longevity: 4 years 5 months

Posts: 551945

Location: Екатеринбург

Post 30-Nov-2015 05:52

[Quote]

Маленькая воровка / La petite voleuse
«A Deliciously Sexy Tale Of Love And Larceny»
Страна: Франция
Жанр: драма
Год выпуска: 1988
Продолжительность: 01:44:10
Перевод: Профессиональный (двухголосый закадровый) - Selena International
Cубтитры: нет
Оригинальная аудиодорожка: французская
Режиссер: Клод Миллер / Claude Miller
В ролях: Шарлотта Генсбур, Дидье Безас, Симон де Ла Бросс, Клотильд де Байзе, Рауль Бийре, Шанталь Банлье, Натали Кардон, Рене Фор, Катрин Ардити, Жильбер Баон.
Описание: 16-летняя Жанин, выросшая в бедности и унижении, малообразованная и наивная, мечтательная и вульгарная, робкая и страстная, могла бы стать благодатным человеческим материалом для неординарной личности, превратиться в Галатею в руках Пигмалиона, достанься на ее долю не жалкий и слабый роман с местным интеллектуалом, а сильная, уважительная и деятельная любовь того, кто оценил бы в этом enfant terrible задатки потрясающей женщины. Героиня картины, мечтая о карьере актрисы, занимается мелкими кражами. Она никак не избавится от романтических иллюзий и не позабудет, что ее детские шалости отныне наказываются уже по взрослым меркам. Встретив свою первую любовь, она пытается наконец-то научиться настоящей профессии, но непостоянство натуры бросает ее в объятия другого. Поездка с ним к морю оборачивается новой кражей и арестом. Из исправительной колонии она совершает побег.
[imdb]http://www.imdb.com/title/tt0098087[/imdb]
Доп. информация: Исходный заимствован из раздачи
Особая благодарность - за перевод от "Селена Интернешнл" -
Сведение звуковой дорожки -

Качество видео: DVDRip
Формат видео: AVI
Видео: 720x432 (1.67:1), 25 fps, XviD Final 1.0 (build 34) ~830 kbps avg, 0.11 bit/pixel
Аудио 1: 48 kHz, MPEG Layer 3, 2 ch, ~128.00 kbps avg - Rus
Аудио 2: 48 kHz, MPEG Layer 3, 2 ch, ~96.00 kbps avg - Fra

MediaInfo

General
Complete name : D:\Public\La petite voleuse (1988) rus-fra.avi
Format : AVI
Format/Info : Audio Video Interleave
File size : 797 MiB
Duration : 1h 44mn
Overall bit rate : 1 070 Kbps
Writing application : VirtualDubMod 1.5.10.2 (build 2542/release)
Writing library : VirtualDubMod build 2542/release
Video
ID : 0
Format : MPEG-4 Visual
Format profile : Advanced Simple@L5
Format settings, BVOP : 2
Format settings, QPel : Yes
Format settings, GMC : No warppoints
Format settings, Matrix : Default (H.263)
Codec ID : DX50
Codec ID/Hint : DivX 5
Duration : 1h 44mn
Bit rate : 832 Kbps
Width : 720 pixels
Height : 432 pixels
Display aspect ratio : 1.667
Frame rate : 25.000 fps
Color space : YUV
Chroma subsampling : 4:2:0
Bit depth : 8 bits
Scan type : Progressive
Compression mode : Lossy
Bits/(Pixel*Frame) : 0.107
Stream size : 620 MiB (78%)
Writing library : XviD 1.0.0 (UTC 2004-05-09)
Audio #1
ID : 1
Format : MPEG Audio
Format version : Version 1
Format profile : Layer 3
Codec ID : 55
Codec ID/Hint : MP3
Duration : 1h 44mn
Bit rate mode : Constant
Bit rate : 128 Kbps
Channel(s) : 2 channels
Sampling rate : 48.0 KHz
Compression mode : Lossy
Stream size : 95.4 MiB (12%)
Alignment : Aligned on interleaves
Interleave, duration : 40 ms (1.00 video frame)
Interleave, preload duration : 504 ms
Title : Rus
Writing library : LAME3.98r
Encoding settings : -m s -V 4 -q 2 -lowpass 17 -b 128
Audio #2
ID : 2
Format : MPEG Audio
Format version : Version 1
Format profile : Layer 3
Codec ID : 55
Codec ID/Hint : MP3
Duration : 1h 44mn
Bit rate mode : Constant
Bit rate : 96.0 Kbps
Channel(s) : 2 channels
Sampling rate : 48.0 KHz
Compression mode : Lossy
Stream size : 71.5 MiB (9%)
Alignment : Aligned on interleaves
Interleave, duration : 40 ms (1.00 video frame)
Interleave, preload duration : 504 ms
Title : Fra

Скриншот c названием фильма

Скриншоты

To download the content you need:
1. Download and install torrent client [for Windows] or for mobile system
2. Click on [Download]
Attention.
If the test YOU are NOT a ROBOT - does not work, then You are using an outdated browser.
Install the current browser and click on [Download]

Do not work with Yandex browser. Uploading files to them is erroneous.
Security: torrent client is allowed by Kaspersky.

[en.asmlocator.ru].t4146.torrent 
Torrent: Registered [ 2015-11-30 05:45 ] · E82A2050571162A12489D0403DA5335BA7F461AD

Download .torrent

Download

16 KB

Status: checked
Completed: 0 times
Size: 797 MB
terms.php
[Profile] [PM]
Display posts:    
Reply to topic

Current time is: 07-Apr 18:57

All times are UTC ± 0



You cannot post new topics in this forum
You cannot reply to topics in this forum
You cannot edit your posts in this forum
You cannot delete your posts in this forum
You cannot vote in polls in this forum
You cannot attach files in this forum
You can download files in this forum
Верим фактам, а не вранью Путина! Факт, что Правительство ведёт Россию к истреблению.
Так как численность населения падает, даже не смотря на приток эмигрантов!
Русская нация вымирает и вырождается, смешиваясь с эмигрантами!
Факт, что военных и граждан предприятий заставляют голосовать за партию Единая Россия и Путина
ПОД СТРАХОМ УВОЛЬНЕНИЯ!
Нам не нужно Правительство, блокирующее личную жизнь, интернет, нарушающее сохранность данных.
Все эти действия финансируются за счёт народа!