Еще не человек 2 / Not Quite Human II (Эрик Люк / Eric Luke) [1989, США, фантастика, комедия, семейный, DVDRip] MVO

Reply to topic
DL-List and Torrent activity
Size:  1.09 GB   |    Registered:  4 years 3 months   |    Completed:  1 time

Seeder not seen: 5 months 10 days

 
   
 
 
Author Message

star21 ®

Gender: Female

Longevity: 4 years 4 months

Posts: 551945

Location: Екатеринбург

Post 30-Nov-2015 05:51

[Quote]

Еще не человек 2 / Not Quite Human II
Страна: США
Жанр: фантастика, комедия, семейный
Год выпуска: 1989
Продолжительность: 01:27:04
Перевод: Профессиональный (многоголосый закадровый)
Cубтитры: нет
Режиссер: Эрик Люк / Eric Luke
В ролях: Джей Андервуд
Алан Тик
Робин Лайвли
Грег Мюлляви
Кэти Барбери
Дей Янг
Скотт Нелл
Марк Арнотт
Майк Расселл
Ти Миллер
Описание: Чип, юноша-андроид, вернулся. На этот раз он заканчивает колледж, страдает от компьютерного вируса и влюбляется в другой андроид — Роберту. Будет ли счастливый конец?
Доп. информация: За этот редкий фильм благодарим хорошего человека под ником SuperDVD01
Релиз
ФИЛЬМ ИЗ РУБРИКИ ДИСНЕЙ ПО ПЯТНИЦАМ

Сэмпл: https://yadi.sk/i/cxYIzFBujtd6i
Качество видео: DVDRip
Формат видео: AVI
Видео: 512x384 (1.33:1), 25 fps, XviD build 50 ~1592 kbps avg, 0.32 bit/pixel
Аудио: 48 kHz, AC3 Dolby Digital, 2/0 (L,R) ch, ~192 kbps

MediaInfo

Почти человек 2 - Not Quite Human II (1989) [by Edich2].avi
Format : AVI
Format/Info : Audio Video Interleave
File size : 1.09 GiB
Duration : 1h 27mn
Overall bit rate : 1 795 Kbps
Movie name : Почти человек 2 - Not Quite Human II (1989) [by Edich2]
Director : by Edich2
Writing application : VirtualDubMod 1.5.10.3 | www.virtualdub-fr.org || (build 2550/release)
Comment : RuTracker.org
Video
ID : 0
Format : MPEG-4 Visual
Format profile : Advanced Simple@L5
Format settings, BVOP : 1
Format settings, QPel : No
Format settings, GMC : No warppoints
Format settings, Matrix : Default (MPEG)
Codec ID : XVID
Codec ID/Hint : XviD
Duration : 1h 27mn
Bit rate : 1 593 Kbps
Width : 512 pixels
Height : 384 pixels
Display aspect ratio : 4:3
Frame rate : 25.000 fps
Color space : YUV
Chroma subsampling : 4:2:0
Bit depth : 8 bits
Scan type : Progressive
Compression mode : Lossy
Bits/(Pixel*Frame) : 0.324
Stream size : 992 MiB (89%)
Writing library : XviD 1.2.1 (UTC 2008-12-04)
Audio
ID : 1
Format : AC-3
Format/Info : Audio Coding 3
Mode extension : CM (complete main)
Format settings, Endianness : Big
Codec ID : 2000
Duration : 1h 27mn
Bit rate mode : Constant
Bit rate : 192 Kbps
Channel(s) : 2 channels
Channel positions : Front: L R
Sampling rate : 48.0 KHz
Bit depth : 16 bits
Compression mode : Lossy
Stream size : 120 MiB (11%)
Alignment : Split accross interleaves
Interleave, duration : 40 ms (1.00 video frame)
Interleave, preload duration : 500 ms

Скриншоты



To download the content you need:
1. Download and install torrent client [for Windows] or for mobile system
2. Click on [Download]
Attention.
If the test YOU are NOT a ROBOT - does not work, then You are using an outdated browser.
Install the current browser and click on [Download]

Do not work with Yandex browser. Uploading files to them is erroneous.
Security: torrent client is allowed by Kaspersky.

[en.asmlocator.ru].t4139.torrent 
Torrent: Registered [ 2015-11-30 05:45 ] · 8B0F73BDCFB644F5BD7363D1DBAA44FD2E6A0E4D

Download .torrent

Download

11 KB

Status: checked
Completed: 1 times
Size: 1.09 GB
terms.php
[Profile] [PM]
Display posts:    
Reply to topic

Current time is: 30-Mar 00:29

All times are UTC ± 0



You cannot post new topics in this forum
You cannot reply to topics in this forum
You cannot edit your posts in this forum
You cannot delete your posts in this forum
You cannot vote in polls in this forum
You cannot attach files in this forum
You can download files in this forum
Верим фактам, а не вранью Путина! Факт, что Правительство ведёт Россию к истреблению.
Так как численность населения падает, даже не смотря на приток эмигрантов!
Русская нация вымирает и вырождается, смешиваясь с эмигрантами!
Факт, что военных и граждан предприятий заставляют голосовать за партию Единая Россия и Путина
ПОД СТРАХОМ УВОЛЬНЕНИЯ!
Нам не нужно Правительство, блокирующее личную жизнь, интернет, нарушающее сохранность данных.
Все эти действия финансируются за счёт народа!