37,2 по утрам / 37°2 le matin / Betty Blue (Жан-Жак Бенекс / Jean-Jacques Beineix) [1986, Франция, драма, HDRip] [Режиссерская версия] VO (Огородников)

Reply to topic
DL-List and Torrent activity
Size:  2.18 GB   |    Registered:  4 years 7 months   |    Completed:  1 time

Seeder not seen: 8 months 25 days

 
   
 
 
Author Message

star21 ®

Gender: Female

Longevity: 4 years 8 months

Posts: 551945

Location: Екатеринбург

Post 30-Nov-2015 05:51

[Quote]

37,2 по утрам / 37°2 le matin / Betty Blue
Режиссерская версия

Страна: Франция
Жанр: драма
Год выпуска: 1986
Продолжительность: 03:04:41
Перевод: Одноголосый закадровый - Вячеслав Огородников
Cубтитры: нет

Режиссер: Жан-Жак Бенекс / Jean-Jacques Beineix
В ролях: Жан-Юг Англад, Беатрис Даль, Жерар Дармон, Консуэло Де Хэвиленд, Клементин Селарье, Жак Мату, Венсан Линдон, Жан-Пьер Биссон, Доминик Пинон, Бернард Юг
Описание: Бетти — имя девушки, которая однажды познакомилась с начинающим писателем Зоргом. Целую неделю после первой встречи Зорг и Бетти не вылезали из постели. Они занимались любовью до изнеможения — день за днем, месяц за месяцем. Однако Судьба уготовила им трагическую расплату за такое недолговечное счастье…
Качество видео: HDRip [Betty.Blue.1986.BDRip.1080p.HDR.mkv]
Формат видео: AVI
Видео: 688x416 (1.65:1), 24 fps, XviD build 73 ~1494 kbps avg, 0.22 bit/pixel
Аудио: 48 kHz, AC3 Dolby Digital, 2/0 (L,R) ch, ~192 kbps

MediaInfo

Общее
Полное имя : H:\Betty.Blue.1986.bdrip_[2.18]_[teko].avi
Формат : AVI
Формат/Информация : Audio Video Interleave
Профиль формата : OpenDML
Размер файла : 2,18 Гбайт
Продолжительность : 3 ч. 4 м.
Общий поток : 1693 Кбит/сек
Программа кодирования : VirtualDubMod 1.5.10.3 | www.virtualdub-fr.org || (build 2550/release)
Библиотека кодирования : VirtualDubMod build 2550/release
Видео
Идентификатор : 0
Формат : MPEG-4 Visual
Профиль формата : Advanced Simple@L5
Параметр BVOP формата : 1
Параметр QPel формата : Нет
Параметр GMC формата : Без точки перехода
Параметр матрицы формата : Выборочная
Идентификатор кодека : XVID
Идентификатор кодека/Подсказка : XviD
Продолжительность : 3 ч. 4 м.
Битрейт : 1489 Кбит/сек
Ширина : 688 пикселей
Высота : 416 пикселей
Соотношение сторон : 1,654
Частота кадров : 24,000 кадра/сек
Цветовое пространство : YUV
Субдискретизация насыщенности : 4:2:0
Битовая глубина : 8 бит
Тип развёртки : Прогрессивная
Метод сжатия : С потерями
Бит/(Пиксели*Кадры) : 0.217
Размер потока : 1,92 Гбайт (88%)
Библиотека кодирования : XviD 73
Аудио
Идентификатор : 1
Формат : AC-3
Формат/Информация : Audio Coding 3
Расширение режима : CM (complete main)
Параметр Endianness формата : Big
Идентификатор кодека : 2000
Продолжительность : 3 ч. 4 м.
Вид битрейта : Постоянный
Битрейт : 192 Кбит/сек
Каналы : 2 канала
Расположение каналов : Front: L R
Частота : 48,0 КГц
Битовая глубина : 16 бит
Метод сжатия : С потерями
Размер потока : 254 Мбайт (11%)
Выравнивание : Разделение по промежуткам
Продолжительность промежутка : 42 мс. (1,00 видеокадр)
Время предзагрузки промежутка : 500 мс.
Релиз группы:--

To download the content you need:
1. Download and install torrent client [for Windows] or for mobile system
2. Click on [Download]
Attention.
If the test YOU are NOT a ROBOT - does not work, then You are using an outdated browser.
Install the current browser and click on [Download]

Do not work with Yandex browser. Uploading files to them is erroneous.
Security: torrent client is allowed by Kaspersky.

[en.asmlocator.ru].t4137.torrent 
Torrent: Registered [ 2015-11-30 05:45 ] · 30A3068678FD3C3B2F9B2894168F1AAC80E74EBE

Download .torrent

Download

11 KB

Status: checked
Completed: 1 times
Size: 2.18 GB
terms.php
[Profile] [PM]
Display posts:    
Reply to topic

Current time is: 14-Jul 01:41

All times are UTC ± 0



You cannot post new topics in this forum
You cannot reply to topics in this forum
You cannot edit your posts in this forum
You cannot delete your posts in this forum
You cannot vote in polls in this forum
You cannot attach files in this forum
You can download files in this forum