Почти человек / Еще не человек / Not Quite Human (Стивен Хиллиард Штерн / Steven Hilliard Stern) [1987, США, фантастика, комедия, семейный, DVDRip] MVO

Reply to topic
DL-List and Torrent activity
Size:  1.09 GB   |    Registered:  4 years 4 months   |    Completed:  0 times

Seeder not seen: Never

 
   
 
 
Author Message

star21 ®

Gender: Female

Longevity: 4 years 4 months

Posts: 551945

Location: Екатеринбург

Post 30-Nov-2015 05:51

[Quote]

Почти человек / Еще не человек / Not Quite Human
Страна: США
Жанр: фантастика, комедия, семейный
Год выпуска: 1987
Продолжительность: 01:26:29
Перевод: Профессиональный (многоголосый закадровый)
Cубтитры: нет
Режиссер: Стивен Хиллиард Штерн / Steven Hilliard Stern
В ролях: Джей Андервуд
Алан Тик
Робин Лайвли
Джозеф Болонья
Роберт Харпер
Кристи Суонсон
Лили Хейден
Брэндон Дуглас
Кэри Скотт
Брайан Коул
Описание: Доктор Джонас Карсон создаёт андроида с внешностью 17-летнего подростка. Юноша становится сыном изобретателя и старшим братом его дочери Бекки, которая даёт ему имя Чип. После переезда Карсонов в новый город, Чип поступает в среднюю школу вместе с Бекки. Доктор Карсон устраивается в эту же школу учителем, чтобы контролировать процесс обучения своего «сына».
Прежний работодатель доктора Карсона — Гордон Вогель — ищет возможность присвоить себе робота, так как уверен, что имеет права на разработку, поскольку доктор Карсон работал над ней в рамках так и не выполненного контракта. В планы Вогеля входит развить Чипа как военный проект.
Доп. информация: За этот редкий фильм благодарим хорошего человека под ником SuperDVD01
Релиз
ФИЛЬМ ИЗ РУБРИКИ ДИСНЕЙ ПО ПЯТНИЦАМ

Сэмпл: https://yadi.sk/i/Q8bOkl8LjvPgP
Качество видео: DVDRip
Формат видео: AVI
Видео: 512x384 (1.33:1), 25 fps, XviD build 50 ~1604 kbps avg, 0.33 bit/pixel
Аудио: 48 kHz, AC3 Dolby Digital, 2/0 (L,R) ch, ~192 kbps

MediaInfo

Почти человек - Not Quite Human (1987) [by Edich2].avi
Format : AVI
Format/Info : Audio Video Interleave
File size : 1.09 GiB
Duration : 1h 26mn
Overall bit rate : 1 807 Kbps
Movie name : Почти человек - Not Quite Human (1987) [by Edich2]
Director : by Edich2
Writing application : VirtualDubMod 1.5.10.3 | www.virtualdub-fr.org || (build 2550/release)
Comment : RuTracker.org
Video
ID : 0
Format : MPEG-4 Visual
Format profile : Advanced Simple@L5
Format settings, BVOP : 1
Format settings, QPel : No
Format settings, GMC : No warppoints
Format settings, Matrix : Default (MPEG)
Codec ID : XVID
Codec ID/Hint : XviD
Duration : 1h 26mn
Bit rate : 1 605 Kbps
Width : 512 pixels
Height : 384 pixels
Display aspect ratio : 4:3
Frame rate : 25.000 fps
Color space : YUV
Chroma subsampling : 4:2:0
Bit depth : 8 bits
Scan type : Progressive
Compression mode : Lossy
Bits/(Pixel*Frame) : 0.327
Stream size : 993 MiB (89%)
Writing library : XviD 1.2.1 (UTC 2008-12-04)
Audio
ID : 1
Format : AC-3
Format/Info : Audio Coding 3
Mode extension : CM (complete main)
Format settings, Endianness : Big
Codec ID : 2000
Duration : 1h 26mn
Bit rate mode : Constant
Bit rate : 192 Kbps
Channel(s) : 2 channels
Channel positions : Front: L R
Sampling rate : 48.0 KHz
Bit depth : 16 bits
Compression mode : Lossy
Stream size : 119 MiB (11%)
Alignment : Split accross interleaves
Interleave, duration : 40 ms (1.00 video frame)
Interleave, preload duration : 500 ms

Скриншоты



To download the content you need:
1. Download and install torrent client [for Windows] or for mobile system
2. Click on [Download]
Attention.
If the test YOU are NOT a ROBOT - does not work, then You are using an outdated browser.
Install the current browser and click on [Download]

Do not work with Yandex browser. Uploading files to them is erroneous.
Security: torrent client is allowed by Kaspersky.

[en.asmlocator.ru].t4135.torrent 
Torrent: Registered [ 2015-11-30 05:45 ] · 62B7464343F6A1EE7A2FFE7A77C3E2C83B6B74C3

Download .torrent

Download

11 KB

Status: checked
Completed: 0 times
Size: 1.09 GB
terms.php
[Profile] [PM]
Display posts:    
Reply to topic

Current time is: 31-Mar 19:22

All times are UTC ± 0



You cannot post new topics in this forum
You cannot reply to topics in this forum
You cannot edit your posts in this forum
You cannot delete your posts in this forum
You cannot vote in polls in this forum
You cannot attach files in this forum
You can download files in this forum
Верим фактам, а не вранью Путина! Факт, что Правительство ведёт Россию к истреблению.
Так как численность населения падает, даже не смотря на приток эмигрантов!
Русская нация вымирает и вырождается, смешиваясь с эмигрантами!
Факт, что военных и граждан предприятий заставляют голосовать за партию Единая Россия и Путина
ПОД СТРАХОМ УВОЛЬНЕНИЯ!
Нам не нужно Правительство, блокирующее личную жизнь, интернет, нарушающее сохранность данных.
Все эти действия финансируются за счёт народа!