Маленькая воровка / La petite voleuse (Клод Миллер / Claude Miller) [1988, Франция, драма, DVDRip] DVO (Селена Интернешнл) + Original Fre

Reply to topic
DL-List and Torrent activity
Size:  1.37 GB   |    Registered:  4 years 4 months   |    Completed:  0 times

Seeder not seen: Never

 
   
 
 
Author Message

star21 ®

Gender: Female

Longevity: 4 years 4 months

Posts: 551945

Location: Екатеринбург

Post 30-Nov-2015 05:51

[Quote]

Маленькая воровка / La petite voleuse
«A Deliciously Sexy Tale Of Love And Larceny»
Страна: Франция
Жанр: драма
Год выпуска: 1988
Продолжительность: 01:44:10
Перевод: Профессиональный (двухголосый закадровый) - Селена Интернешнл
Cубтитры: нет
Оригинальная аудиодорожка: французская
Режиссер: Клод Миллер / Claude Miller
В ролях: Шарлотта Генсбур, Дидье Безас, Симон де Ла Бросс, Клотильд де Байзе, Рауль Бийре, Шанталь Банлье, Натали Кардон, Рене Фор, Катрин Ардити, Жильбер Баон.
Описание: 16-летняя Жанин, выросшая в бедности и унижении, малообразованная и наивная, мечтательная и вульгарная, робкая и страстная, могла бы стать благодатным человеческим материалом для неординарной личности, превратиться в Галатею в руках Пигмалиона, достанься на ее долю не жалкий и слабый роман с местным интеллектуалом, а сильная, уважительная и деятельная любовь того, кто оценил бы в этом enfant terrible задатки потрясающей женщины. Героиня картины, мечтая о карьере актрисы, занимается мелкими кражами. Она никак не избавится от романтических иллюзий и не позабудет, что ее детские шалости отныне наказываются уже по взрослым меркам. Встретив свою первую любовь, она пытается наконец-то научиться настоящей профессии, но непостоянство натуры бросает ее в объятия другого. Поездка с ним к морю оборачивается новой кражей и арестом. Из исправительной колонии она совершает побег.
[imdb]http://www.imdb.com/title/tt0098087[/imdb]
Доп. информация:
Огромная благодарность за перевод от "Selena International" -
Сведение звуковой дорожки -

Качество видео: DVDRip
Формат видео: AVI
Видео: 720x384 (1.88:1), 25 fps, XviD build 50 ~1418 kbps avg, 0.20 bit/pixel
Аудио 1: 48 kHz, AC3 Dolby Digital, 2/0 (L,R) ch, ~224 kbps - Rus
Аудио 2: 48 kHz, AC3 Dolby Digital, 2/0 (L,R) ch, ~224 kbps - Fra

MediaInfo

General
Complete name : D:\Public\Malenkaya.vorovka.1988.XviD.DVDRip.KinoZalSat.rus-fra.avi
Format : AVI
Format/Info : Audio Video Interleave
File size : 1.37 GiB
Duration : 1h 44mn
Overall bit rate : 1 882 Kbps
Writing application : VirtualDubMod 1.5.10.2 (build 2542/release)
Writing library : VirtualDubMod build 2542/release
Video
ID : 0
Format : MPEG-4 Visual
Format profile : Advanced Simple@L5
Format settings, BVOP : 1
Format settings, QPel : No
Format settings, GMC : No warppoints
Format settings, Matrix : Default (H.263)
Codec ID : XVID
Codec ID/Hint : XviD
Duration : 1h 44mn
Bit rate : 1 420 Kbps
Width : 720 pixels
Height : 384 pixels
Display aspect ratio : 1.875
Frame rate : 25.000 fps
Color space : YUV
Chroma subsampling : 4:2:0
Bit depth : 8 bits
Scan type : Progressive
Compression mode : Lossy
Bits/(Pixel*Frame) : 0.205
Stream size : 1.03 GiB (75%)
Writing library : XviD 1.2.1 (UTC 2008-12-04)
Audio #1
ID : 1
Format : AC-3
Format/Info : Audio Coding 3
Mode extension : CM (complete main)
Codec ID : 2000
Duration : 1h 44mn
Bit rate mode : Constant
Bit rate : 224 Kbps
Channel(s) : 2 channels
Channel positions : Front: L R
Sampling rate : 48.0 KHz
Bit depth : 16 bits
Compression mode : Lossy
Stream size : 167 MiB (12%)
Alignment : Split accross interleaves
Interleave, duration : 40 ms (1.00 video frame)
Interleave, preload duration : 500 ms
Title : Rus
Audio #2
ID : 2
Format : AC-3
Format/Info : Audio Coding 3
Mode extension : CM (complete main)
Codec ID : 2000
Duration : 1h 44mn
Bit rate mode : Constant
Bit rate : 224 Kbps
Channel(s) : 2 channels
Channel positions : Front: L R
Sampling rate : 48.0 KHz
Bit depth : 16 bits
Compression mode : Lossy
Stream size : 167 MiB (12%)
Alignment : Split accross interleaves
Interleave, duration : 40 ms (1.00 video frame)
Interleave, preload duration : 500 ms
Title : Fra

Скриншот c названием фильма

Скриншоты

To download the content you need:
1. Download and install torrent client [for Windows] or for mobile system
2. Click on [Download]
Attention.
If the test YOU are NOT a ROBOT - does not work, then You are using an outdated browser.
Install the current browser and click on [Download]

Do not work with Yandex browser. Uploading files to them is erroneous.
Security: torrent client is allowed by Kaspersky.

[en.asmlocator.ru].t4134.torrent 
Torrent: Registered [ 2015-11-30 05:45 ] · 5542C719EEBE242BB958B752B68C5A07269A8E2C

Download .torrent

Download

14 KB

Status: checked
Completed: 0 times
Size: 1.37 GB
terms.php
[Profile] [PM]
Display posts:    
Reply to topic

Current time is: 03-Apr 11:11

All times are UTC ± 0



You cannot post new topics in this forum
You cannot reply to topics in this forum
You cannot edit your posts in this forum
You cannot delete your posts in this forum
You cannot vote in polls in this forum
You cannot attach files in this forum
You can download files in this forum
Верим фактам, а не вранью Путина! Факт, что Правительство ведёт Россию к истреблению.
Так как численность населения падает, даже не смотря на приток эмигрантов!
Русская нация вымирает и вырождается, смешиваясь с эмигрантами!
Факт, что военных и граждан предприятий заставляют голосовать за партию Единая Россия и Путина
ПОД СТРАХОМ УВОЛЬНЕНИЯ!
Нам не нужно Правительство, блокирующее личную жизнь, интернет, нарушающее сохранность данных.
Все эти действия финансируются за счёт народа!