Ордер на смерть / Death Warrant (Деран Сарафян / Deran Sarafian) [1990, Канада, США, Боевик, триллер, драма, криминал, детектив, DVB] [Fullscreen] MVO

Reply to topic
DL-List and Torrent activity
Size:  2.24 GB   |    Registered:  4 years 3 months   |    Completed:  0 times

Seeder not seen: Never

 
   
 
 
Author Message

star21 ®

Gender: Female

Longevity: 4 years 4 months

Posts: 551945

Location: Екатеринбург

Post 30-Nov-2015 05:51

[Quote]

Ордер на смерть / Death Warrant Страна: Канада, США
Жанр: Боевик, триллер, драма, криминал, детектив
Год выпуска: 1990
Продолжительность: 01:21:35
Перевод: Профессиональный (многоголосый закадровый)
Cубтитры: нет
Оригинальная аудиодорожка: нет
Режиссер: Деран Сарафян / Deran Sarafian
В ролях: Жан-Клод Ван Дамм, Роберт Гийом, Синтия Гибб, Джордж Дикерсон, Арт ЛаФлёр, Пэтрик Килпэтрик, Джошуа Джон Миллер, Хэнк Стоун, Конрад Данн, Джек Бэннон
Описание: Офицер Луис Берк, «нечистый на руку» полицейский детектив, отправляется под видом осужденного в тюрьму «Харрисон», чтобы раскрыть серию убийств заключенных. В стенах тюрьмы он сталкивается с жестокостью сокамерников, с коррумпированными охранниками, со смертью и предательством всех мастей.
Когда Берк узнает шокирующую тайну тюрьмы, он должен совершить дерзкий побег — его последний шанс вырваться из лап сотен осужденных головорезов, возглавляемых его кровным врагом — «Заговорённым».-[imdb]http://www.imdb.com/title/tt0099385[/imdb]
MPAA: R - Лицам до 17 лет обязательно присутствие взрослого-Доп. информация: Fullscreen (4:3), в отличии от Widescreen (16:9), имеет большее наполнение кадра по высоте, но меньшее по ширине.-Релиз подготовил , специально для -Качество видео: DVB - Sample
Формат видео: TS
Видео: MPEG-4 AVC, 720x576 (4:3), 3484 Кбит/с, 25 кадров/сек, 0.336 бит/пиксель
Аудио: MPEG Layer 2, 48 КГц, 2 канал, 256 Кбит/с

MediaInfo

Общее
Идентификатор : 1 (0x1)
Полное имя : C:\Фильмы\Death.Warrant.1990.DVB.Fullscreen-Rutracker-PB.ts
Формат : MPEG-TS
Размер файла : 2,24 Гбайт
Продолжительность : 1 ч. 21 м.
Режим общего битрейта : Переменный
Общий поток : 3937 Кбит/сек
Видео
Идентификатор : 67 (0x43)
Идентификатор меню : 1 (0x1)
Формат : AVC
Формат/Информация : Advanced Video Codec
Профиль формата : High@L3.0
Параметр CABAC формата : Да
Параметр ReFrames формата : 3 кадра
Параметр GOP формата : M=4, N=28
Идентификатор кодека : 27
Продолжительность : 1 ч. 21 м.
Битрейт : 3484 Кбит/сек
Ширина : 720 пикселей
Высота : 576 пикселей
Соотношение сторон : 4:3
Частота кадров : 25,000 кадров/сек
Стандарт вещания : Component
Цветовое пространство : YUV
Субдискретизация насыщенности : 4:2:0
Битовая глубина : 8 бит
Тип развёртки : Чересстрочная
Порядок развёртки : Верхнее поле первое
Бит/(Пиксели*Кадры) : 0.336
Размер потока : 1,99 Гбайт (88%)
Основные цвета : BT.601 PAL
Характеристики трансфера : BT.470 System B, BT.470 System G
Коэффициенты матрицы : BT.601
Аудио
Идентификатор : 68 (0x44)
Идентификатор меню : 1 (0x1)
Формат : MPEG Audio
Версия формата : Version 1
Профиль формата : Layer 2
Идентификатор кодека : 3
Продолжительность : 1 ч. 21 м.
Вид битрейта : Постоянный
Битрейт : 256 Кбит/сек
Каналы : 2 канала
Частота : 48,0 КГц
Метод сжатия : С потерями
Задержка видео : -40 мс.
Размер потока : 149 Мбайт (7%)
Язык : English

Скриншоты


To download the content you need:
1. Download and install torrent client [for Windows] or for mobile system
2. Click on [Download]
Attention.
If the test YOU are NOT a ROBOT - does not work, then You are using an outdated browser.
Install the current browser and click on [Download]

Do not work with Yandex browser. Uploading files to them is erroneous.
Security: torrent client is allowed by Kaspersky.

[en.asmlocator.ru].t4132.torrent 
Torrent: Registered [ 2015-11-30 05:45 ] · 2E8CD696444B884F193B7F1E499B190ED3C15761

Download .torrent

Download

12 KB

Status: checked
Completed: 0 times
Size: 2.24 GB
terms.php
[Profile] [PM]
Display posts:    
Reply to topic

Current time is: 28-Mar 23:27

All times are UTC ± 0



You cannot post new topics in this forum
You cannot reply to topics in this forum
You cannot edit your posts in this forum
You cannot delete your posts in this forum
You cannot vote in polls in this forum
You cannot attach files in this forum
You can download files in this forum
Верим фактам, а не вранью Путина! Факт, что Правительство ведёт Россию к истреблению.
Так как численность населения падает, даже не смотря на приток эмигрантов!
Русская нация вымирает и вырождается, смешиваясь с эмигрантами!
Факт, что военных и граждан предприятий заставляют голосовать за партию Единая Россия и Путина
ПОД СТРАХОМ УВОЛЬНЕНИЯ!
Нам не нужно Правительство, блокирующее личную жизнь, интернет, нарушающее сохранность данных.
Все эти действия финансируются за счёт народа!