9 1/2 недель / Девять с половиной недель / Nine 1/2 Weeks / Nine and a Half Weeks (Эдриэн Лайн / Adrian Lyne) [1986, США, мелодрама, эротика, VHSRip] [FullScreen] VO

Reply to topic
DL-List and Torrent activity
Size:  1.46 GB   |    Registered:  4 years 7 months   |    Completed:  0 times

Seeder not seen: Never

 
   
 
 
Author Message

star21 ®

Gender: Female

Longevity: 4 years 8 months

Posts: 551945

Location: Екатеринбург

Post 30-Nov-2015 05:51

[Quote]

9 1/2 недель / Девять с половиной недель / Nine 1/2 Weeks / Nine and a Half Weeks
[FullScreen]
Страна: США
Жанр: мелодрама, эротика
Год выпуска: 1986
Продолжительность: 01:51:46
Перевод: Одноголосый закадровый (неизвестный)
(скорее всего это т.н. "Кролик" - именуемый в узких кругах)
Cубтитры: нет
Режиссер: Эдриэн Лайн / Adrian Lyne
В ролях: Микки Рурк /Mickey Rourke/, Ким Бэйсингер /Kim Basinger/, Маргарет Уиттон /Margaret Whitton/, Дэвид Маргулис /David Margulies/, Кристин Барански /Christine Baranski/, Карен Янг /Karen Young
Описание: Аннотация от alenavova
Этот фильм не столько о любви, сколько о странной психологической и сексуальной зависимости двух совершенно разных людей, случайно нашедших друг друга в огромном городе. Их отношения не похожи на обычный роман, они скорее напоминают игру, в которую сначала с воодушевлением играют двое, а потом только один из партнеров. Но игра в любовь - одна из самых опасных и разрушительных... У "массового" зрителя он имеет неизменный успех, несмотря на назойливые утверждения критиков о вторичности сюжета (который будто бы заимствован из всемирно известной ленты Бернардо Бертолуччи "Последнее танго в Париже"). Но даже если это и так, то вряд ли сознание такой "киновторичности" способно снизить уровень зрительского впечатления от этой прекрасно сделанной мелодрамы.
Доп. информация: Оцифровка VHS (личный архив) и получение VHSRip alenavova
Эксклюзив для rutracker.org. При размещении данного релиза на других сайтах ссылка на автора alenavova обязательна.

Релиз
Сэмпл: https://yadi.sk/i/ntXwfMlzjyvKQ
Качество видео: VHSRip
Формат видео: AVI
Видео: 704x528 (1.33:1), 25 fps, XviD build 50 ~1672 kbps avg, 0.18 bit/pixel
Аудио: 48 kHz, AC3 Dolby Digital, 2/0 (L,R) ch, ~192 kbps

MediaInfo

Девять с половиной недель - Nine and a Half Weeks (by alenavova).avi
Format : AVI
Format/Info : Audio Video Interleave
File size : 1.46 GiB
Duration : 1h 51mn
Overall bit rate : 1 875 Kbps
Movie name : Девять с половиной недель - Nine and a Half Weeks (by alenavova)
Director : by alenavova
Writing application : VirtualDubMod 1.5.10.3 | www.virtualdub-fr.org || (build 2550/release)
Copyright : Edich2
Comment : Rutracker.org
Video
ID : 0
Format : MPEG-4 Visual
Format profile : Advanced Simple@L5
Format settings, BVOP : 1
Format settings, QPel : No
Format settings, GMC : No warppoints
Format settings, Matrix : Default (MPEG)
Codec ID : XVID
Codec ID/Hint : XviD
Duration : 1h 51mn
Bit rate : 1 673 Kbps
Width : 704 pixels
Height : 528 pixels
Display aspect ratio : 4:3
Frame rate : 25.000 fps
Color space : YUV
Chroma subsampling : 4:2:0
Bit depth : 8 bits
Scan type : Progressive
Compression mode : Lossy
Bits/(Pixel*Frame) : 0.180
Stream size : 1.31 GiB (89%)
Writing library : XviD 1.2.1 (UTC 2008-12-04)
Audio
ID : 1
Format : AC-3
Format/Info : Audio Coding 3
Mode extension : CM (complete main)
Format settings, Endianness : Big
Codec ID : 2000
Duration : 1h 51mn
Bit rate mode : Constant
Bit rate : 192 Kbps
Channel(s) : 2 channels
Channel positions : Front: L R
Sampling rate : 48.0 KHz
Bit depth : 16 bits
Compression mode : Lossy
Stream size : 154 MiB (10%)
Alignment : Split accross interleaves
Interleave, duration : 40 ms (1.00 video frame)
Interleave, preload duration : 500 ms

Скриншоты


To download the content you need:
1. Download and install torrent client [for Windows] or for mobile system
2. Click on [Download]
Attention.
If the test YOU are NOT a ROBOT - does not work, then You are using an outdated browser.
Install the current browser and click on [Download]

Do not work with Yandex browser. Uploading files to them is erroneous.
Security: torrent client is allowed by Kaspersky.

[en.asmlocator.ru].t4128.torrent 
Torrent: Registered [ 2015-11-30 05:45 ] · C4C6BED74A5147CD254D1D710C3D8BB7CE61C2AE

Download .torrent

Download

15 KB

Status: checked
Completed: 0 times
Size: 1.46 GB
terms.php
[Profile] [PM]
Display posts:    
Reply to topic

Current time is: 13-Jul 02:40

All times are UTC ± 0



You cannot post new topics in this forum
You cannot reply to topics in this forum
You cannot edit your posts in this forum
You cannot delete your posts in this forum
You cannot vote in polls in this forum
You cannot attach files in this forum
You can download files in this forum
Верим фактам, а не вранью Путина! Факт, что Правительство ведёт Россию к истреблению.
Так как численность населения падает, даже не смотря на приток эмигрантов!
Русская нация вымирает и вырождается, смешиваясь с эмигрантами!
Факт, что военных и граждан предприятий заставляют голосовать за партию Единая Россия и Путина
ПОД СТРАХОМ УВОЛЬНЕНИЯ!
Нам не нужно Правительство, блокирующее личную жизнь, интернет, нарушающее сохранность данных.
Все эти действия финансируются за счёт народа!