Семья шпионов / Family of Spies (Стивен Джилленхол / Stephen Gyllenhaal) [1990, США, драма, DVDRip] AVO (Алексеев) + Original Eng

Reply to topic
DL-List and Torrent activity
Size:  2.9 GB   |    Registered:  4 years 3 months   |    Completed:  0 times

Seeder not seen: Never

 
   
 
 
Author Message

star21 ®

Gender: Female

Longevity: 4 years 4 months

Posts: 551945

Location: Екатеринбург

Post 30-Nov-2015 05:51

[Quote]

Семья шпионов / Family of Spies
Страна: США
Жанр: драма
Год выпуска: 1990
Продолжительность: 01:28:46 + 02:11:42
Перевод: Авторский (одноголосый закадровый) Алексеев
Cубтитры: нет
Оригинальная аудиодорожка: английский-Режиссер: Стивен Джилленхол / Stephen Gyllenhaal-В ролях: Пауэрс Бут, Лесли Энн Уоррен, Лили Тейлор, Грэм Беккел, Эндрю Лоури, Дженни Робертсон, Чарльз Странски, Кен Дженкинс, Елена Стайтелер, Гордон Клэпп...-Описание: Фильм создан по книгам Пита Эрли 'Семья шпионов' и Хауарда Блума 'Я переступаю запреты'. Военно-морскому офицеру-американцу не хватало денег. Семья, дети, жена, всем все надо и сейчас, сразу. А ему еще хотелось любовницу иметь. В каждом порту. Вот и пошел военно-морской офицер в советское посольство: я, говорит, коды и шифры знаю, доступ к ним у меня постоянный, так что за определенную мзду могу вам информацию поставлять... Для начала русские офицеру-предателю дали, кажется, тысячу долларов. А взамен взяли его офицерское удостоверение. Дальше - больше. Когда же свои почуяли нелады в военно-морском хозяйстве, офицер-предатель ушел в отставку. Но к шифрам пристроил родственничка (брата), чтобы информацию по-прежнему получать. Потом и сына пустил по собственным стопам...-Качество видео: DVDRip / DVD9 R1
Формат видео: AVI
Видео: 688x528 (1.30:1), 25 fps, XviD build 73 ~1481 kbps avg, 0.16 bit/pixel
Аудио 1: 48 kHz, AC3 Dolby Digital, 2/0 (L,R) Surround Encoded ch, ~192 kbps | RUS
Аудио 2: 48 kHz, AC3 Dolby Digital, 2/0 (L,R) Surround Encoded ch, ~192 kbps | ENG-Сэмпл: http://sendfile.su/1167988-

Дополнительно

  • Фильм состоит из двух серий. На оригинальную дорожку наложен чистый голос перевода Антона Алексеева.
  • Автор рипа keeper.52

MediaInfo

Format : AVI
Format/Info : Audio Video Interleave
File size : 1.17 GiB
Duration : 1h 28mn
Overall bit rate : 1 881 Kbps
Writing application : VirtualDubMod 1.5.10.3 (build 2550/release)
Writing library : VirtualDubMod build 2550/release
Video
ID : 0
Format : MPEG-4 Visual
Format profile : Advanced Simple@L5
Format settings, BVOP : 1
Format settings, QPel : No
Format settings, GMC : No warppoints
Format settings, Matrix : Custom
Codec ID : XVID
Codec ID/Hint : XviD
Duration : 1h 28mn
Bit rate : 1 483 Kbps
Width : 688 pixels
Height : 528 pixels
Display aspect ratio : 4:3
Frame rate : 25.000 fps
Color space : YUV
Chroma subsampling : 4:2:0
Bit depth : 8 bits
Scan type : Progressive
Compression mode : Lossy
Bits/(Pixel*Frame) : 0.163
Stream size : 941 MiB (79%)
Writing library : XviD 73
Audio #1
ID : 1
Format : AC-3
Format/Info : Audio Coding 3
Format profile : Dolby Digital
Mode extension : CM (complete main)
Format settings, Endianness : Big
Codec ID : 2000
Duration : 1h 28mn
Bit rate mode : Constant
Bit rate : 192 Kbps
Channel(s) : 2 channels
Channel positions : Front: L R
Sampling rate : 48.0 KHz
Bit depth : 16 bits
Compression mode : Lossy
Stream size : 122 MiB (10%)
Alignment : Split accross interleaves
Interleave, duration : 40 ms (1.00 video frame)
Interleave, preload duration : 500 ms
Audio #2
ID : 2
Format : AC-3
Format/Info : Audio Coding 3
Format profile : Dolby Digital
Mode extension : CM (complete main)
Format settings, Endianness : Big
Codec ID : 2000
Duration : 1h 28mn
Bit rate mode : Constant
Bit rate : 192 Kbps
Channel(s) : 2 channels
Channel positions : Front: L R
Sampling rate : 48.0 KHz
Bit depth : 16 bits
Compression mode : Lossy
Stream size : 122 MiB (10%)
Alignment : Split accross interleaves
Interleave, duration : 40 ms (1.00 video frame)
Interleave, preload duration : 500 ms

Скриншоты

To download the content you need:
1. Download and install torrent client [for Windows] or for mobile system
2. Click on [Download]
Attention.
If the test YOU are NOT a ROBOT - does not work, then You are using an outdated browser.
Install the current browser and click on [Download]

Do not work with Yandex browser. Uploading files to them is erroneous.
Security: torrent client is allowed by Kaspersky.

[en.asmlocator.ru].t4127.torrent 
Torrent: Registered [ 2015-11-30 05:45 ] · 1600B43717BB965DD51D5F8F24EE7C98AA9B34A0

Download .torrent

Download

15 KB

Status: checked
Completed: 0 times
Size: 2.9 GB
terms.php
[Profile] [PM]
Display posts:    
Reply to topic

Current time is: 29-Mar 17:36

All times are UTC ± 0



You cannot post new topics in this forum
You cannot reply to topics in this forum
You cannot edit your posts in this forum
You cannot delete your posts in this forum
You cannot vote in polls in this forum
You cannot attach files in this forum
You can download files in this forum
Верим фактам, а не вранью Путина! Факт, что Правительство ведёт Россию к истреблению.
Так как численность населения падает, даже не смотря на приток эмигрантов!
Русская нация вымирает и вырождается, смешиваясь с эмигрантами!
Факт, что военных и граждан предприятий заставляют голосовать за партию Единая Россия и Путина
ПОД СТРАХОМ УВОЛЬНЕНИЯ!
Нам не нужно Правительство, блокирующее личную жизнь, интернет, нарушающее сохранность данных.
Все эти действия финансируются за счёт народа!