Дешёвые шутки / Cheap Shots (Джефф Урелес / Jeff Ureles, Джерри Стеффхаас / Jerry Stoeffhaas,) [1988, США, Комедия, VHSRip] AVO (Сергей Визгунов)

Reply to topic
DL-List and Torrent activity
Size:  1.02 GB   |    Registered:  4 years 4 months   |    Completed:  0 times

Seeder not seen: Never

 
   
 
 
Author Message

star21 ®

Gender: Female

Longevity: 4 years 4 months

Posts: 551945

Location: Екатеринбург

Post 30-Nov-2015 05:51

[Quote]

Дешёвые шутки / Cheap Shots
Страна: США
Жанр: Комедия
Год выпуска: 1988
Продолжительность: 01:26:11
Перевод: Авторский (одноголосый закадровый) Сергей Визгунов
Cубтитры: нет
Режиссер: Джефф Урелес / Jeff Ureles, Джерри Стеффхаас / Jerry Stoeffhaas,
В ролях: Луис Зорич, Дэвид Патрик Келли /David Patrick Kelly/, Мэри Луиз Уилсон /Mary Louise Wilson/, Кларк Гордон, Пэйшенс Мур, Джон Галатео, Майкл Твен, Джадсон Кэмп
Описание: Стареющий грек, владелец приходящего в упадок мотеля, пытается спастись от банкротства. Надолго заселившийся заезжий молодец, отдает ему видеокамеру вместо уплаты и дает дельный совет — в одной из кабин мотеля под потолок устанавливают камеру и начинают снимать сексапильную блондинку с роскошными формами. Но порнобизнес не принес успеха…
Доп. информация: Благодарность:
Fikaloid - за дорожку AVO с VHS
xelon2006 - за синхрон дорожки.

Релиз
Сэмпл: https://yadi.sk/i/YBE-WFXNjzMRp
Качество видео: VHSRip
Формат видео: AVI
Видео: 640x480 (1.33:1), 23.976 fps, XviD build 64 ~1491 kbps avg, 0.20 bit/pixel
Аудио: 48 kHz, AC3 Dolby Digital, 2/0 (L,R) ch, ~192 kbps

MediaInfo

Дешёвые шутки - Cheap Shots [by Edich2].avi
Format : AVI
Format/Info : Audio Video Interleave
File size : 1.02 GiB
Duration : 1h 26mn
Overall bit rate : 1 693 Kbps
Movie name : Дешёвые шутки - Cheap Shots [by Edich2]
Director : by Edich2
Comment : RuTracker.org
Video
ID : 0
Format : MPEG-4 Visual
Format profile : Advanced Simple@L5
Format settings, BVOP : 2
Format settings, QPel : No
Format settings, GMC : No warppoints
Format settings, Matrix : Default (H.263)
Codec ID : XVID
Codec ID/Hint : XviD
Duration : 1h 26mn
Bit rate : 1 492 Kbps
Width : 640 pixels
Height : 480 pixels
Display aspect ratio : 4:3
Frame rate : 23.976 fps
Color space : YUV
Chroma subsampling : 4:2:0
Bit depth : 8 bits
Scan type : Progressive
Compression mode : Lossy
Bits/(Pixel*Frame) : 0.203
Stream size : 920 MiB (88%)
Writing library : XviD 64
Audio
ID : 1
Format : AC-3
Format/Info : Audio Coding 3
Mode extension : CM (complete main)
Format settings, Endianness : Big
Codec ID : 2000
Duration : 1h 26mn
Bit rate mode : Constant
Bit rate : 192 Kbps
Channel(s) : 2 channels
Channel positions : Front: L R
Sampling rate : 48.0 KHz
Bit depth : 16 bits
Compression mode : Lossy
Stream size : 118 MiB (11%)
Alignment : Aligned on interleaves
Interleave, duration : 42 ms (1.00 video frame)
Interleave, preload duration : 512 ms

Скриншоты


To download the content you need:
1. Download and install torrent client [for Windows] or for mobile system
2. Click on [Download]
Attention.
If the test YOU are NOT a ROBOT - does not work, then You are using an outdated browser.
Install the current browser and click on [Download]

Do not work with Yandex browser. Uploading files to them is erroneous.
Security: torrent client is allowed by Kaspersky.

[en.asmlocator.ru].t4126.torrent 
Torrent: Registered [ 2015-11-30 05:45 ] · 3C12AEF42A15514C1A06BC4D2ABFC13C201EC0EE

Download .torrent

Download

11 KB

Status: checked
Completed: 0 times
Size: 1.02 GB
terms.php
[Profile] [PM]
Display posts:    
Reply to topic

Current time is: 04-Apr 14:26

All times are UTC ± 0



You cannot post new topics in this forum
You cannot reply to topics in this forum
You cannot edit your posts in this forum
You cannot delete your posts in this forum
You cannot vote in polls in this forum
You cannot attach files in this forum
You can download files in this forum
Верим фактам, а не вранью Путина! Факт, что Правительство ведёт Россию к истреблению.
Так как численность населения падает, даже не смотря на приток эмигрантов!
Русская нация вымирает и вырождается, смешиваясь с эмигрантами!
Факт, что военных и граждан предприятий заставляют голосовать за партию Единая Россия и Путина
ПОД СТРАХОМ УВОЛЬНЕНИЯ!
Нам не нужно Правительство, блокирующее личную жизнь, интернет, нарушающее сохранность данных.
Все эти действия финансируются за счёт народа!