Молодой Гарри Гудини / Young Harry Houdini (Джеймс Орр / James Orr) [1987, США, драма, семейный, биография, DVDRip] MVO

Reply to topic
DL-List and Torrent activity
Size:  1.09 GB   |    Registered:  4 years 7 months   |    Completed:  0 times

Seeder not seen: 3 years

 
   
 
 
Author Message

star21 ®

Gender: Female

Longevity: 4 years 8 months

Posts: 551945

Location: Екатеринбург

Post 30-Nov-2015 05:51

[Quote]

Молодой Гарри Гудини / Young Harry Houdini
Страна: США
Жанр: драма, семейный, биография
Год выпуска: 1987
Продолжительность: 01:28:00
Перевод: Профессиональный (многоголосый закадровый)
Оригинальная аудиодорожка: нет
Режиссер: Джеймс Орр / James Orr
В ролях: Джефри ДеМанн / Jeffrey DeMunn, Уил Уитон / Wil Wheaton (Stand by Me), Kerri Green, Barry Corbin, Roy Dotrice, Rossie Harris, José Ferrer
Описание: Знаменитый чародей освобождения из любых пут Гарри Гудини поражает своим мастерством многочисленную публику. Но что это — мастерство фокусника или настоящая магия? Этим секретом Гудини делится со своим старым другом Артуром. А началось все в детстве, когда Эрик (таково настоящее имя волшебника), решает покинуть дом и попроситься в ученики к магу Мэрлину…
Доп. информация: За этот редкий фильм благодарим хорошего человека под ником SuperDVD01
ФИЛЬМ ИЗ РУБРИКИ ДИСНЕЙ ПО ПЯТНИЦАМ

Релиз-первоисточник
Сэмпл: https://yadi.sk/i/kcrtTihkk6Sy7
Качество видео: DVDRip (???)
Формат видео: AVI
Видео: 512x384 (1.33:1), 25 fps, XviD build 50 ~1573 kbps avg, 0.32 bit/pixel
Аудио:48 kHz, AC3 Dolby Digital, 2/0 ch, ~192 kbps

MediaInfo

Молодой Гарри Гудини - Young Harry Houdini [by Edich2] FIX.avi
Format : AVI
Format/Info : Audio Video Interleave
File size : 1.09 GiB
Duration : 1h 28mn
Overall bit rate : 1 776 Kbps
Movie name : Молодой Гарри Гудини - Young Harry Houdini [by Edich2]
Director : by Edich2
Writing application : VirtualDubMod 1.5.10.2 (build 2540/release)
Writing library : VirtualDubMod build 2540/release
Comment : RuTracker.org
Video
ID : 0
Format : MPEG-4 Visual
Format profile : Advanced Simple@L5
Format settings, BVOP : 1
Format settings, QPel : No
Format settings, GMC : No warppoints
Format settings, Matrix : Default (MPEG)
Codec ID : XVID
Codec ID/Hint : XviD
Duration : 1h 28mn
Bit rate : 1 574 Kbps
Width : 512 pixels
Height : 384 pixels
Display aspect ratio : 4:3
Frame rate : 25.000 fps
Color space : YUV
Chroma subsampling : 4:2:0
Bit depth : 8 bits
Scan type : Progressive
Compression mode : Lossy
Bits/(Pixel*Frame) : 0.320
Stream size : 991 MiB (89%)
Writing library : XviD 1.2.1 (UTC 2008-12-04)
Audio
ID : 1
Format : AC-3
Format/Info : Audio Coding 3
Mode extension : CM (complete main)
Format settings, Endianness : Big
Codec ID : 2000
Duration : 1h 28mn
Bit rate mode : Constant
Bit rate : 192 Kbps
Channel(s) : 2 channels
Channel positions : Front: L R
Sampling rate : 48.0 KHz
Bit depth : 16 bits
Compression mode : Lossy
Stream size : 121 MiB (11%)
Alignment : Split accross interleaves
Interleave, duration : 40 ms (1.00 video frame)
Interleave, preload duration : 500 ms

Скриншоты



To download the content you need:
1. Download and install torrent client [for Windows] or for mobile system
2. Click on [Download]
Attention.
If the test YOU are NOT a ROBOT - does not work, then You are using an outdated browser.
Install the current browser and click on [Download]

Do not work with Yandex browser. Uploading files to them is erroneous.
Security: torrent client is allowed by Kaspersky.

[en.asmlocator.ru].t4124.torrent 
Torrent: Registered [ 2015-11-30 05:45 ] · EAF3EE75C1119F0C25CB38ED77CFCFA6F24DB872

Download .torrent

Download

11 KB

Status: checked
Completed: 0 times
Size: 1.09 GB
terms.php
[Profile] [PM]
Display posts:    
Reply to topic

Current time is: 13-Jul 21:52

All times are UTC ± 0



You cannot post new topics in this forum
You cannot reply to topics in this forum
You cannot edit your posts in this forum
You cannot delete your posts in this forum
You cannot vote in polls in this forum
You cannot attach files in this forum
You can download files in this forum