Мертвецы не носят клетчатое / Мертвые пледов не носят / Мертвые не носят шотландку / Dead Men Don\'t Wear Plaid (Карл Рейнер / Carl Reiner) [1982, США, детектив, комедия, триллер, VHSRip] [FullScreen] AVO (Андрей Дольский)

Reply to topic
DL-List and Torrent activity
Size:  1.37 GB   |    Registered:  4 years 4 months   |    Completed:  1 time

Seeder not seen: 5 months 14 days

 
   
 
 
Author Message

star21 ®

Gender: Female

Longevity: 4 years 4 months

Posts: 551945

Location: Екатеринбург

Post 30-Nov-2015 05:51

[Quote]

Мертвецы не носят клетчатое / Мертвые пледов не носят / Мертвые не носят шотландку / Dead Men Don't Wear Plaid
[FullScreen]
Страна: США
Жанр: детектив, комедия, триллер
Год выпуска: 1982
Продолжительность: 01:24:38
Перевод: Авторский (одноголосый закадровый) Андрей Дольский
(перевел как - Мертвые пледов не носят)
Cубтитры: нет
Режиссер: Карл Рейнер / Carl Reiner
В ролях: Стив Мартин, Рэйчел Уорд, Алан Лэдд, Карл Райнер, Барбара Стэнвик, Берт Ланкастер, Хэмфри Богарт, Ава Гарднер, Кэри Грант, Ингрид Бергман, Вероника Лэйк, Бетт Дэвис, Лана Тернер, Кирк Дуглас, Чарльз Лотон, Винсент Прайс
Описание:
Вариант 1. Аннотация от alenavova
Изысканная пародия на гангстерский ("черный") фильм 30-50-х годов. В фильме использованы кадры классических лент с участием Хэмфри Богарта, Ингрид Бергман, Бетт Дэвис, Джеймса Кэгни, Чарльза Лоутона, Эвы Гарднер, Ланы Тернер, Винсента Прайса и других звезда. Перед зрителем проходят остроумно обыгранные кадры из таких картин как "Двойная страховка", "Подозрение" и другие. Комический персонаж Риордан, частный сыщик, расследует убийство по просьбе некоей дамочки Джулии и выходит на след неонацистской организации, захватившей отца Джулии в плен. Фильм для киноманов, знакомых с лентами "черной серии" и пародируемыми объектами, хотя и не знакомые получат свою порцию удовольствия.
Вариант 2. Специально снятая в черно-белом изображении пародия на криминальные фильмы 40-х годов. Стив Мартин в роли частного детектива, а Рэйчел Уорд - его клиентка, обратившаяся с просьбой найти пропавшего мужа. В картине использованы кадры из старых фильмов с известнейшими актерами тех лет. Мартин бесподобен как никогда.
Картина посвящена памяти Эдит Хэд, художницы по костюмам, работавшей над многими известными фильмами 40-50-х годов, для которой этот фильм стал последним. (Иванов М.)
Доп. информация: Оцифровка VHS (личный архив) и получение VHSRip alenavova
Эксклюзив для rutracker.org. При размещении данного релиза на других сайтах ссылка на автора alenavova обязательна.

Релиз
Сэмпл: https://yadi.sk/i/sVXMmJKWk7LHz
Качество видео: VHSRip
Формат видео: AVI
Видео: 704x528 (1.33:1), 25 fps, XviD build 50 ~2110 kbps avg, 0.23 bit/pixel
Аудио: 48 kHz, AC3 Dolby Digital, 2/0 (L,R) ch, ~192 kbps

MediaInfo

Мертвые пледов не носят - Dead Men Don't Wear Plaid (by alenavova).avi
Format : AVI
Format/Info : Audio Video Interleave
File size : 1.37 GiB
Duration : 1h 24mn
Overall bit rate : 2 312 Kbps
Movie name : Мертвые пледов не носят - Dead Men Don't Wear Plaid (by alenavova)
Director : by alenavova
Writing application : VirtualDubMod 1.5.10.3 | www.virtualdub-fr.org || (build 2550/release)
Copyright : Edich2
Comment : RuTracker.org
Video
ID : 0
Format : MPEG-4 Visual
Format profile : Advanced Simple@L5
Format settings, BVOP : 1
Format settings, QPel : No
Format settings, GMC : No warppoints
Format settings, Matrix : Default (MPEG)
Codec ID : XVID
Codec ID/Hint : XviD
Duration : 1h 24mn
Bit rate : 2 111 Kbps
Width : 704 pixels
Height : 528 pixels
Display aspect ratio : 4:3
Frame rate : 25.000 fps
Color space : YUV
Chroma subsampling : 4:2:0
Bit depth : 8 bits
Scan type : Progressive
Compression mode : Lossy
Bits/(Pixel*Frame) : 0.227
Stream size : 1.25 GiB (91%)
Writing library : XviD 1.2.1 (UTC 2008-12-04)
Audio
ID : 1
Format : AC-3
Format/Info : Audio Coding 3
Mode extension : CM (complete main)
Format settings, Endianness : Big
Codec ID : 2000
Duration : 1h 24mn
Bit rate mode : Constant
Bit rate : 192 Kbps
Channel(s) : 2 channels
Channel positions : Front: L R
Sampling rate : 48.0 KHz
Bit depth : 16 bits
Compression mode : Lossy
Stream size : 116 MiB (8%)
Alignment : Split accross interleaves
Interleave, duration : 40 ms (1.00 video frame)
Interleave, preload duration : 500 ms

Скриншоты


To download the content you need:
1. Download and install torrent client [for Windows] or for mobile system
2. Click on [Download]
Attention.
If the test YOU are NOT a ROBOT - does not work, then You are using an outdated browser.
Install the current browser and click on [Download]

Do not work with Yandex browser. Uploading files to them is erroneous.
Security: torrent client is allowed by Kaspersky.

[en.asmlocator.ru].t4123.torrent 
Torrent: Registered [ 2015-11-30 05:45 ] · 75BDF0123D86BBD0583A8B781586DBDF868AE648

Download .torrent

Download

14 KB

Status: checked
Completed: 1 times
Size: 1.37 GB
terms.php
[Profile] [PM]
Display posts:    
Reply to topic

Current time is: 03-Apr 09:46

All times are UTC ± 0



You cannot post new topics in this forum
You cannot reply to topics in this forum
You cannot edit your posts in this forum
You cannot delete your posts in this forum
You cannot vote in polls in this forum
You cannot attach files in this forum
You can download files in this forum
Верим фактам, а не вранью Путина! Факт, что Правительство ведёт Россию к истреблению.
Так как численность населения падает, даже не смотря на приток эмигрантов!
Русская нация вымирает и вырождается, смешиваясь с эмигрантами!
Факт, что военных и граждан предприятий заставляют голосовать за партию Единая Россия и Путина
ПОД СТРАХОМ УВОЛЬНЕНИЯ!
Нам не нужно Правительство, блокирующее личную жизнь, интернет, нарушающее сохранность данных.
Все эти действия финансируются за счёт народа!