Для этого нельзя быть слишком молодым / Никогда не рано умирать / Never Too Young To Die (Джил Беттман / Gil Bettman) [1986, США, боевик, VHSRip] AVO (Леонид Володарский)

Reply to topic
DL-List and Torrent activity
Size:  1.37 GB   |    Registered:  4 years 7 months   |    Completed:  0 times

Seeder not seen: 4 years 2 months

 
   
 
 
Author Message

star21 ®

Gender: Female

Longevity: 4 years 8 months

Posts: 551945

Location: Екатеринбург

Post 30-Nov-2015 05:51

[Quote]

Для этого нельзя быть слишком молодым / Никогда не рано умирать / Never Too Young To Die
Страна: США
Жанр: боевик
Год выпуска: 1986
Продолжительность: 01:36:19
Перевод: Авторский (одноголосый закадровый) Леонид Володарский
Cубтитры: нет
Режиссер: Джил Беттман / Gil Bettman
В ролях: Джон Стамос, Вэнити, Джин Симмонс, Джордж Лэзенби, Питер Квон, Эд Брок, Джон Андерсон, Роберт Инглунд, Тара Букман
Описание: Аннотация от alenavova
Молодой человек учился в колледже. А папа его был шпионом. Так вышло, что у них обоих на жизненном пути попадались одни и те же люди. Но папе повезло меньше. Когда он столкнулся с маньяком-гермафродитом, жаждущим отравить водохранилище, из которого Лос-Анджелес берет чистую питьевую воду, то потерпел поражение. Тогда сынок вступил на ту же трудовую авантюрную стезю, которая опять привела к маньяку. А еще у папаши была помощница. Так она и сыночку стала надежным другом и учителем, вплоть до обучения молодого человека премудростям постельных наук. С отважной "Барбареллой" под боком разве ж можно проиграть?.. Герой с врагами расправляется шутя. Но наиболее интересный персонаж в фильме "Для этого нельзя быть слишком молодым" - не он. Тот, которого играет Джин Симмонс (из "Kiss"). Плюс в эпизоде Роберт Инглунд, анти-"Фредди Крюгер".
Доп. информация: Оцифровка VHS (личный архив) и получение VHSRip alenavova
Эксклюзив для rutracker.org. При размещении данного релиза на других сайтах ссылка на автора alenavova обязательна.

Релиз
Сэмпл: https://yadi.sk/i/ASEMIj5Kk8Brk
Качество видео: VHSRip
Формат видео: AVI
Видео: 704x528 (1.33:1), 25 fps, XviD build 50 ~1828 kbps avg, 0.20 bit/pixel
Аудио: 48 kHz, AC3 Dolby Digital, 2/0 (L,R) ch, ~192 kbps

MediaInfo

Для этого нельзя быть слишком молодым - Never Too Young To Die (by alenavova).avi
Format : AVI
Format/Info : Audio Video Interleave
File size : 1.37 GiB
Duration : 1h 36mn
Overall bit rate : 2 030 Kbps
Movie name : Для этого нельзя быть слишком молодым - Never Too Young To Die (by alenavova)
Director : by alenavova
Writing application : VirtualDubMod 1.5.10.3 | www.virtualdub-fr.org || (build 2550/release)
Copyright : Edich2
Comment : RuTracker.org
Video
ID : 0
Format : MPEG-4 Visual
Format profile : Advanced Simple@L5
Format settings, BVOP : 1
Format settings, QPel : No
Format settings, GMC : No warppoints
Format settings, Matrix : Default (MPEG)
Codec ID : XVID
Codec ID/Hint : XviD
Duration : 1h 36mn
Bit rate : 1 828 Kbps
Width : 704 pixels
Height : 528 pixels
Display aspect ratio : 4:3
Frame rate : 25.000 fps
Color space : YUV
Chroma subsampling : 4:2:0
Bit depth : 8 bits
Scan type : Progressive
Compression mode : Lossy
Bits/(Pixel*Frame) : 0.197
Stream size : 1.23 GiB (90%)
Writing library : XviD 1.2.1 (UTC 2008-12-04)
Audio
ID : 1
Format : AC-3
Format/Info : Audio Coding 3
Mode extension : CM (complete main)
Format settings, Endianness : Big
Codec ID : 2000
Duration : 1h 36mn
Bit rate mode : Constant
Bit rate : 192 Kbps
Channel(s) : 2 channels
Channel positions : Front: L R
Sampling rate : 48.0 KHz
Bit depth : 16 bits
Compression mode : Lossy
Stream size : 132 MiB (9%)
Alignment : Split accross interleaves
Interleave, duration : 40 ms (1.00 video frame)
Interleave, preload duration : 500 ms

Скриншоты

To download the content you need:
1. Download and install torrent client [for Windows] or for mobile system
2. Click on [Download]
Attention.
If the test YOU are NOT a ROBOT - does not work, then You are using an outdated browser.
Install the current browser and click on [Download]

Do not work with Yandex browser. Uploading files to them is erroneous.
Security: torrent client is allowed by Kaspersky.

[en.asmlocator.ru].t4122.torrent 
Torrent: Registered [ 2015-11-30 05:45 ] · 4335D2C7D2F9D942624C6AF9D46FA0C1870D7C89

Download .torrent

Download

14 KB

Status: checked
Completed: 0 times
Size: 1.37 GB
terms.php
[Profile] [PM]
Display posts:    
Reply to topic

Current time is: 13-Jul 01:10

All times are UTC ± 0



You cannot post new topics in this forum
You cannot reply to topics in this forum
You cannot edit your posts in this forum
You cannot delete your posts in this forum
You cannot vote in polls in this forum
You cannot attach files in this forum
You can download files in this forum
Верим фактам, а не вранью Путина! Факт, что Правительство ведёт Россию к истреблению.
Так как численность населения падает, даже не смотря на приток эмигрантов!
Русская нация вымирает и вырождается, смешиваясь с эмигрантами!
Факт, что военных и граждан предприятий заставляют голосовать за партию Единая Россия и Путина
ПОД СТРАХОМ УВОЛЬНЕНИЯ!
Нам не нужно Правительство, блокирующее личную жизнь, интернет, нарушающее сохранность данных.
Все эти действия финансируются за счёт народа!