Пуля во лбу / Un buco in fronte / Hole in the Forehead (Джузеппе Вари / Giuseppe Vari) [1968, Италия, Спагетти вестерн, DVDRip] VO (funny77)

Reply to topic
DL-List and Torrent activity
Size:  747 MB   |    Registered:  4 years 4 months   |    Completed:  1 time

Seeder not seen: 5 months 21 day

 
   
 
 
Author Message

star21 ®

Gender: Female

Longevity: 4 years 5 months

Posts: 551945

Location: Екатеринбург

Post 30-Nov-2015 05:51

[Quote]

Пуля во лбу / Un buco in fronte / Hole in the Forehead- Страна: Италия
Жанр: Спагетти вестерн
Год выпуска: 1968
Продолжительность: 01:28:01
Перевод: Одноголосый закадровый |
Cубтитры: нет
Оригинальная аудиодорожка: нет
Режиссер: Джузеппе Вари / Giuseppe Vari
В ролях: Драгомир «Гидра» Боянич | Клаудио Ундани | Корина Фонтейн | Джузеппе Аддоббати | Джон Брайан-Описание: Чтобы выяснить местонахождение несметных сокровищ, необходимо сопоставить информацию с трёх разных карт. Проблема в том, что все три куска находятся у разных людей, каждый из которых — настоящий головорез.-Качество видео: DVDRip
Формат видео: AVI
Видео: 640x272 (2,35:1), 25000fps, XviD, 1054 kbps avg, 0.242 bit/pixel
Аудио: MPEG Audio Layer, 48.0 KHz, 2 ch, 128kbps avg

MediaInfo

ОбщееПолное имя                               : D:\Un buco in fronte (1969) DVDRip 745 MB by Waldo.aviФормат                                   : AVIФормат/Информация                        : Audio Video InterleaveРазмер файла                             : 747 МбайтПродолжительность                        : 1 ч. 28 м.Общий поток                              : 1186 Кбит/секПрограмма кодирования                    : VirtualDubMod 1.5.10.3 | www.virtualdub-fr.org || (build 2550/release)Библиотека кодирования                   : VirtualDubMod build 2550/release
ВидеоИдентификатор : 0Формат : MPEG-4 VisualПрофиль формата : Advanced Simple@L5Параметр BVOP формата : 2Параметр QPel формата : НетПараметр GMC формата : Без точки переходаПараметр матрицы формата : ВыборочнаяИдентификатор кодека : XVIDИдентификатор кодека/Подсказка : XviDПродолжительность : 1 ч. 28 м.Битрейт : 1054 Кбит/секШирина : 640 пикселейВысота : 272 пикселяСоотношение сторон : 2,35:1Частота кадров : 25,000 кадров/секЦветовое пространство : YUVСубдискретизация насыщенности : 4:2:0Битовая глубина : 8 битТип развёртки : ПрогрессивнаяМетод сжатия : С потерямиБит/(Пиксели*Кадры) : 0.242Размер потока : 663 Мбайт (89%)Библиотека кодирования : XviD 73
АудиоИдентификатор : 1Формат : MPEG AudioВерсия формата : Version 1Профиль формата : Layer 3Идентификатор кодека : 55Идентификатор кодека/Подсказка : MP3Продолжительность : 1 ч. 24 м.Вид битрейта : ПостоянныйБитрейт : 128 Кбит/секКаналы : 2 каналаЧастота : 48,0 КГцМетод сжатия : С потерямиРазмер потока : 77,3 Мбайт (10%)Выравнивание : Соединение по промежуткамПродолжительность промежутка : 42 мс. (1,04 видеокадр)Время предзагрузки промежутка : 504 мс.Библиотека кодирования : LAME3.99rНастройки программы : -m s -V 4 -q 2 -lowpass 17 -b 128

Скриншот c названием фильма

Скриншоты

To download the content you need:
1. Download and install torrent client [for Windows] or for mobile system
2. Click on [Download]
Attention.
If the test YOU are NOT a ROBOT - does not work, then You are using an outdated browser.
Install the current browser and click on [Download]

Do not work with Yandex browser. Uploading files to them is erroneous.
Security: torrent client is allowed by Kaspersky.

[en.asmlocator.ru].t4121.torrent 
Torrent: Registered [ 2015-11-30 05:45 ] · FA685305C7DF2562B7714A27A15F9DF000329056

Download .torrent

Download

15 KB

Status: checked
Completed: 1 times
Size: 747 MB
terms.php
[Profile] [PM]
Display posts:    
Reply to topic

Current time is: 10-Apr 09:05

All times are UTC ± 0



You cannot post new topics in this forum
You cannot reply to topics in this forum
You cannot edit your posts in this forum
You cannot delete your posts in this forum
You cannot vote in polls in this forum
You cannot attach files in this forum
You can download files in this forum
Верим фактам, а не вранью Путина! Факт, что Правительство ведёт Россию к истреблению.
Так как численность населения падает, даже не смотря на приток эмигрантов!
Русская нация вымирает и вырождается, смешиваясь с эмигрантами!
Факт, что военных и граждан предприятий заставляют голосовать за партию Единая Россия и Путина
ПОД СТРАХОМ УВОЛЬНЕНИЯ!
Нам не нужно Правительство, блокирующее личную жизнь, интернет, нарушающее сохранность данных.
Все эти действия финансируются за счёт народа!