Боксер / Кикбоксер / Kickboxer (Марк ДиСалле / Mark DiSalle, Дэвид Уорт / David Worth) [1989, США, боевик, триллер, спорт, VHSRip] [FullScreen] AVO (Вартан Дохалов)

Reply to topic
DL-List and Torrent activity
Size:  1.37 GB   |    Registered:  4 years   |    Completed:  0 times

Seeder not seen: Never

 
   
 
 
Author Message

star21 ®

Gender: Female

Longevity: 4 years 1 month

Posts: 551946

Location: Екатеринбург

Post 30-Nov-2015 05:51

[Quote]

Боксер / Кикбоксер / Kickboxer
[FullScreen]
Страна: США
Жанр: боевик, триллер, спорт
Год выпуска: 1989
Продолжительность: 01:33:47
Перевод: Авторский (одноголосый закадровый) Вартан Дохалов
[Дохалов перевел как Боксер]
Cубтитры: нет
Режиссер: Марк ДиСалле / Mark DiSalle, Дэвид Уорт / David Worth
В ролях: Жан Клод Ван Дамм (Kurt Sloane), Деннис Алексио (Eric Sloane), Деннис Чан (Xian Chow), Мишель Кисси (Tong Po), Хэскелл В. Андерсон III (Winston Taylor), Рошель Ашана (Mylee), Ка Тинг Ли (Freddy Li), Ричард Фу (Tao Liu), Рикки Лю (Big Thai Man), Син Хо Йинг (Huge Village Man #1)
Описание: Аннотация от alenavova
Двое братьев - Курт и Эрик - выступают в Таиланде на соревнованиях по кикбоксингу. Но выступает, в основном, Эрик, а Курт (Ван Дамм) вытирает ему пот со лба и радуется победам брата. Но вот на ринг выходит Тон По, лучший боец Азии, и наступает страшная минута для Эрика: схватка заканчивается трагически, - его в коме прямо с ристалища уносят в больницу . И тогда наступает черед Курт: он клянется изучить искусство кикбоксинга в совершенстве и отомстить за брата. Но Тон По, кроме отличного владения руками и ногами, имеет связи с мафией... Жан Клод ВанДамм в своем амплуа! Как и в "КРОВАВОМ СПОРТЕ", он мастерски машет всеми частями тела, из последних сил сражаясь с Тон По и с мафией. Поклонники актера могут торжествовать: на их улице настоящий костоломный праздник. Иногда фильм почему-то называют "КРОВАВЫЙ СПОРТ-2", хотя сюжетно никак с ним не связан. "КИКБОКСЕР" имел продолжения, но уже без Ван Дамма.
Доп. информация: Оцифровка VHS (личный архив) и получение VHSRip alenavova
Эксклюзив для rutracker.org. При размещении данного релиза на других сайтах ссылка на автора alenavova обязательна.

Релиз
Сэмпл: https://yadi.sk/i/s1uSRsDtkACqX
Качество видео: VHSRip
Формат видео: AVI
Видео: 704x528 (1.33:1), 25 fps, XviD build 50 ~1885 kbps avg, 0.20 bit/pixel
Аудио: 48 kHz, AC3 Dolby Digital, 2/0 (L,R) ch, ~192 kbps

MediaInfo

Кикбоксер - Kickboxer (by alenavova).avi
Format : AVI
Format/Info : Audio Video Interleave
File size : 1.37 GiB
Duration : 1h 33mn
Overall bit rate : 2 087 Kbps
Movie name : Кикбоксер - Kickboxer (by alenavova)
Director : by alenavova
Writing application : VirtualDubMod 1.5.10.3 | www.virtualdub-fr.org || (build 2550/release)
Copyright : Edich2
Comment : RuTracker.org
Video
ID : 0
Format : MPEG-4 Visual
Format profile : Advanced Simple@L5
Format settings, BVOP : 1
Format settings, QPel : No
Format settings, GMC : No warppoints
Format settings, Matrix : Custom
Codec ID : XVID
Codec ID/Hint : XviD
Duration : 1h 33mn
Bit rate : 1 885 Kbps
Width : 704 pixels
Height : 528 pixels
Display aspect ratio : 4:3
Frame rate : 25.000 fps
Color space : YUV
Chroma subsampling : 4:2:0
Bit depth : 8 bits
Scan type : Progressive
Compression mode : Lossy
Bits/(Pixel*Frame) : 0.203
Stream size : 1.24 GiB (90%)
Writing library : XviD 1.2.1 (UTC 2008-12-04)
Audio
ID : 1
Format : AC-3
Format/Info : Audio Coding 3
Mode extension : CM (complete main)
Format settings, Endianness : Big
Codec ID : 2000
Duration : 1h 33mn
Bit rate mode : Constant
Bit rate : 192 Kbps
Channel(s) : 2 channels
Channel positions : Front: L R
Sampling rate : 48.0 KHz
Bit depth : 16 bits
Compression mode : Lossy
Stream size : 129 MiB (9%)
Alignment : Split accross interleaves
Interleave, duration : 40 ms (1.00 video frame)
Interleave, preload duration : 500 ms

Скриншоты


To download the content you need:
1. Download and install torrent client [for Windows] or for mobile system
2. Click on [Download]
Attention.
If the test YOU are NOT a ROBOT - does not work, then You are using an outdated browser.
Install the current browser and click on [Download]
Security: torrent client is allowed by Kaspersky.

[en.asmlocator.ru].t4119.torrent 
Torrent: Registered [ 2015-11-30 05:45 ] · 7ABCB7F2015250F4E24A956AFF077C9EE88BF1D1

Download .torrent

Download

14 KB

Status: checked
Completed: 0 times
Size: 1.37 GB
terms.php
[Profile] [PM]
Display posts:    
Reply to topic

Current time is: 08-Dec 11:06

All times are UTC ± 0



You cannot post new topics in this forum
You cannot reply to topics in this forum
You cannot edit your posts in this forum
You cannot delete your posts in this forum
You cannot vote in polls in this forum
You cannot attach files in this forum
You can download files in this forum
Верим фактам, а не вранью Путина! Факт, что Правительство ведёт Россию к истреблению.
Так как численность населения падает, даже не смотря на приток эмигрантов!
Русская нация вымирает и вырождается, смешиваясь с эмигрантами!
Факт, что военных и граждан предприятий заставляют голосовать за партию Единая Россия и Путина
ПОД СТРАХОМ УВОЛЬНЕНИЯ!
Нам не нужно Правительство, блокирующее личную жизнь, интернет, нарушающее сохранность данных.
Все эти действия финансируются за счёт народа!