Рождественская история / A Christmas Story (Боб Кларк / Bob Clark) [1983, США, Канада, драма, комедия, семейный, новогодний, DVDRip] [Fullscreen] DVO + Sub Rus + Original Eng

Reply to topic
DL-List and Torrent activity
Size:  1.46 GB   |    Registered:  4 years   |    Completed:  0 times

Seeder not seen: Never

 
   
 
 
Author Message

star21 ®

Gender: Female

Longevity: 4 years 1 month

Posts: 551946

Location: Екатеринбург

Post 30-Nov-2015 05:51

[Quote]

Рождественская история / A Christmas Story / Full Screen
Страна: США, Канада
Жанр: драма, комедия, семейный, новогодний
Год выпуска: 1983
Продолжительность: 01:33:33
-
Перевод: Профессиональный (двухголосый закадровый)
Cубтитры: русские
Оригинальная аудиодорожка: английский
-
Режиссер: Боб Кларк / Bob Clark
В ролях: Мелинда Диллон, Дэррен МакГэвин, Питер Биллингсли, Йен Петрелла, Скотт Шварц, Р.Д. Робб, Тедде Мур, Яно Анайа, Зак Уорд, Джефф Джиллен
-
Описание: Индиана, 1940 год. Девятилетний Ральфи мечтает об идеальном рождественском подарке — настоящей двухсотзарядной пневматической винтовке Красного Наездника. Ворчливый папаша и заботливая мамочка, естественно, против, полагая, что их драгоценный сынуля может себя покалечить! И тогда Ральфи решает обратиться за помощью к самому Санта-Клаусу.
-
Доп. информация: [imdb]http://www.imdb.com/title/tt0085334[/imdb]
-
Сэмпл: http://sendfile.su/1170164
-
Качество видео: DVDRip (DVD9/__СЕРЁГА__)
Формат видео: AVI
Видео: 624x464 (1.34:1), 23.976 fps, XviD build 65 ~1831 kbps avg, 0.26 bit/pixel
Аудио 1: 48 kHz, AC3 Dolby Digital, 1/0 (C) ch, ~192 kbps RUS
Аудио 2: 48 kHz, AC3 Dolby Digital, 1/0 (C) ch, ~192 kbps ENG
Формат субтитров: softsub (SRT)

MediaInfo

General
Complete name : C:\Users\ALEX\Downloads\Фильмы\A Christmas Story.Full Screen.1983.RUS.ENG.DVDRip.XviD.AC3\A Christmas Story.Full Screen.1983.RUS.ENG.DVDRip.XviD.AC3.avi
Format : AVI
Format/Info : Audio Video Interleave
File size : 1.46 GiB
Duration : 1h 33mn
Overall bit rate : 2 230 Kbps
Writing application : VirtualDubMod 1.5.10.2 (build 2542/release)
Writing library : VirtualDubMod build 2542/release
Video
ID : 0
Format : MPEG-4 Visual
Format profile : Advanced Simple@L5
Format settings, BVOP : 1
Format settings, QPel : No
Format settings, GMC : No warppoints
Format settings, Matrix : Custom
Codec ID : XVID
Codec ID/Hint : XviD
Duration : 1h 33mn
Bit rate : 1 832 Kbps
Width : 624 pixels
Height : 464 pixels
Display aspect ratio : 4:3
Frame rate : 23.976 fps
Color space : YUV
Chroma subsampling : 4:2:0
Bit depth : 8 bits
Scan type : Progressive
Compression mode : Lossy
Bits/(Pixel*Frame) : 0.264
Stream size : 1.20 GiB (82%)
Writing library : XviD 65
Audio #1
ID : 1
Format : AC-3
Format/Info : Audio Coding 3
Mode extension : CM (complete main)
Format settings, Endianness : Big
Codec ID : 2000
Duration : 1h 33mn
Bit rate mode : Constant
Bit rate : 192 Kbps
Channel(s) : 1 channel
Channel positions : Front: C
Sampling rate : 48.0 KHz
Bit depth : 16 bits
Compression mode : Lossy
Stream size : 128 MiB (9%)
Alignment : Split accross interleaves
Interleave, duration : 42 ms (1.00 video frame)
Interleave, preload duration : 500 ms
Audio #2
ID : 2
Format : AC-3
Format/Info : Audio Coding 3
Mode extension : CM (complete main)
Format settings, Endianness : Big
Codec ID : 2000
Duration : 1h 33mn
Bit rate mode : Constant
Bit rate : 192 Kbps
Channel(s) : 1 channel
Channel positions : Front: C
Sampling rate : 48.0 KHz
Bit depth : 16 bits
Compression mode : Lossy
Stream size : 128 MiB (9%)
Alignment : Split accross interleaves
Interleave, duration : 42 ms (1.00 video frame)
Interleave, preload duration : 500 ms

Скриншоты

To download the content you need:
1. Download and install torrent client [for Windows] or for mobile system
2. Click on [Download]
Attention.
If the test YOU are NOT a ROBOT - does not work, then You are using an outdated browser.
Install the current browser and click on [Download]
Security: torrent client is allowed by Kaspersky.

[en.asmlocator.ru].t4118.torrent 
Torrent: Registered [ 2015-11-30 05:45 ] · AFC2B0A38CDA56CD4186BBA8F64C3EEE9E1A8608

Download .torrent

Download

15 KB

Status: checked
Completed: 0 times
Size: 1.46 GB
terms.php
[Profile] [PM]
Display posts:    
Reply to topic

Current time is: 15-Dec 01:08

All times are UTC ± 0



You cannot post new topics in this forum
You cannot reply to topics in this forum
You cannot edit your posts in this forum
You cannot delete your posts in this forum
You cannot vote in polls in this forum
You cannot attach files in this forum
You can download files in this forum
Верим фактам, а не вранью Путина! Факт, что Правительство ведёт Россию к истреблению.
Так как численность населения падает, даже не смотря на приток эмигрантов!
Русская нация вымирает и вырождается, смешиваясь с эмигрантами!
Факт, что военных и граждан предприятий заставляют голосовать за партию Единая Россия и Путина
ПОД СТРАХОМ УВОЛЬНЕНИЯ!
Нам не нужно Правительство, блокирующее личную жизнь, интернет, нарушающее сохранность данных.
Все эти действия финансируются за счёт народа!