Терминатор / Киборг-убийца / The Terminator (Джеймс Кэмерон / James Cameron) [1984, США, фантастика, боевик, LDRip] [Full Screen] MVO (Останкино/Первый канал) + AVO (Гаврилов, старый) + Original (Eng)

Reply to topic
DL-List and Torrent activity
Size:  5.2 GB   |    Registered:  4 years   |    Completed:  0 times

Seeder not seen: 9 months 20 days

 
   
 
 
Author Message

star21 ®

Gender: Female

Longevity: 4 years 1 month

Posts: 551946

Location: Екатеринбург

Post 30-Nov-2015 05:51

[Quote]

ТерминаторThe Terminator- Страна: США
Жанр: фантастика, боевик
Год выпуска: 1984
Продолжительность: 01:47:40-Перевод №1: Профессиональный (многоголосый закадровый) Останкино / Первый канал
Перевод №2: Авторский (одноголосый закадровый) Андрей Гаврилов
Оригинальная аудиодорожка: английский
Cубтитры: нет
Режиссер: Джеймс Кэмерон / James Cameron
В ролях: Арнольд Шварценеггер (Terminator), Майкл Бин (Kyle Reese), Линда Хэмилтон (Sarah Connor), Пол Уинфилд (Lieutenant Ed Traxler), Лэнс Хенриксен (Detective Hal Vukovich), Рик Россович (Matt Buchanan), Бесс Мотта (Ginger Ventura), Эрл Боэн (Dr. Peter Silberman), Дик Миллер (Pawn Shop Clerk), Шон Шеппс (Nancy), Брюс Кернер (Desk Sergeant), Франко Колумбу (Future Terminator)-Описание: История противостояния солдата Кайла Риза и киборга-терминатора, прибывших в 1984-й год из пост-апокалиптического будущего, где миром правят машины-убийцы, а человечество находится на грани вымирания. Цель киборга: убить девушку по имени Сара Коннор, чей ещё нерождённый сын к 2029 году выиграет войну человечества с машинами. Цель Риза: спасти Сару и остановить Терминатора любой ценой.-[imdb]http://www.imdb.com/title/tt0088247[/imdb]
MPAA: R - Лицам до 17 лет обязательно присутствие взрослого-За исходник большое спасибо ermak1990. Перевод Гаврилова также с его коллекции.
Гаврилов переводит название как "Киборг-убийца".-Качество: LDRip
Контейнер: MPEG-TS
Видео: MPEG-2 Video, 720x480 (4:3), 5926 kbps, 29,970 fps, Interlaced (Top Field First), 0,572 bpp
Аудио №1: русский / AC3 / 2.0 / 48 kHz / 224 kbps / 16 bit - MVO
Аудио №2: русский / AC3 / 2.0 / 48 kHz / 192 kbps / 16 bit - AVO
Аудио №3: английский / MPEG-1 Audio layer 2 / 2.0 / 48 kHz / 224 kbps-СЭМПЛ - https://yadi.sk/i/KL44vfCpkAEbm-

Скриншоты

Сравнения

С БД рипом и ВХС рипом




MediaInfo

General
ID : 1 (0x1)
Complete name : E:\The.Terminator.1984.LD.FS.MVO.AVO.ENG.ts
Format : MPEG-TS
File size : 5.20 GiB
Duration : 1h 47mn
Overall bit rate mode : Variable
Overall bit rate : 6 915 Kbps
Maximum Overall bit rate : 35.5 Mbps
Video
ID : 4113 (0x1011)
Menu ID : 1 (0x1)
Format : MPEG Video
Format version : Version 2
Format profile : Main@Main
Format settings, BVOP : Yes
Format settings, Matrix : Custom
Format settings, GOP : M=3, N=15
Format settings, picture structure : Frame
Codec ID : 2
Duration : 1h 47mn
Bit rate mode : Variable
Bit rate : 5 927 Kbps
Maximum bit rate : 8 000 Kbps
Width : 720 pixels
Height : 480 pixels
Display aspect ratio : 4:3
Frame rate : 29.970 fps
Standard : NTSC
Color space : YUV
Chroma subsampling : 4:2:0
Bit depth : 8 bits
Scan type : Interlaced
Scan order : Top Field First
Compression mode : Lossy
Bits/(Pixel*Frame) : 0.572
Time code of first frame : 00:00:13:29
Time code source : Group of pictures header
GOP, Open/Closed : Open
Stream size : 4.46 GiB (86%)
Color primaries : BT.601 NTSC
Transfer characteristics : BT.601
Matrix coefficients : BT.601
Audio #1
ID : 4352 (0x1100)
Menu ID : 1 (0x1)
Format : AC-3
Format/Info : Audio Coding 3
Mode extension : CM (complete main)
Format settings, Endianness : Big
Codec ID : 129
Duration : 1h 47mn
Bit rate mode : Constant
Bit rate : 224 Kbps
Channel(s) : 2 channels
Channel positions : Front: L R
Sampling rate : 48.0 KHz
Compression mode : Lossy
Stream size : 173 MiB (3%)
Language : Russian
Audio #2
ID : 4353 (0x1101)
Menu ID : 1 (0x1)
Format : AC-3
Format/Info : Audio Coding 3
Mode extension : CM (complete main)
Format settings, Endianness : Big
Codec ID : 129
Duration : 1h 47mn
Bit rate mode : Constant
Bit rate : 192 Kbps
Channel(s) : 2 channels
Channel positions : Front: L R
Sampling rate : 48.0 KHz
Compression mode : Lossy
Stream size : 148 MiB (3%)
Language : Russian
Audio #3
ID : 4354 (0x1102)
Menu ID : 1 (0x1)
Format : MPEG Audio
Format version : Version 1
Format profile : Layer 2
Mode : Joint stereo
Codec ID : 4
Duration : 1h 47mn
Bit rate mode : Constant
Bit rate : 224 Kbps
Channel(s) : 2 channels
Sampling rate : 48.0 KHz
Compression mode : Lossy
Stream size : 173 MiB (3%)
Language : English

To download the content you need:
1. Download and install torrent client [for Windows] or for mobile system
2. Click on [Download]
Attention.
If the test YOU are NOT a ROBOT - does not work, then You are using an outdated browser.
Install the current browser and click on [Download]
Security: torrent client is allowed by Kaspersky.

[en.asmlocator.ru].t4117.torrent 
Torrent: Registered [ 2015-11-30 05:45 ] · 5604CE021FFAD76387C3473BCFA68E1E303AE94E

Download .torrent

Download

26 KB

Status: checked
Completed: 0 times
Size: 5.2 GB
terms.php
[Profile] [PM]
Display posts:    
Reply to topic

Current time is: 14-Dec 23:14

All times are UTC ± 0



You cannot post new topics in this forum
You cannot reply to topics in this forum
You cannot edit your posts in this forum
You cannot delete your posts in this forum
You cannot vote in polls in this forum
You cannot attach files in this forum
You can download files in this forum
Верим фактам, а не вранью Путина! Факт, что Правительство ведёт Россию к истреблению.
Так как численность населения падает, даже не смотря на приток эмигрантов!
Русская нация вымирает и вырождается, смешиваясь с эмигрантами!
Факт, что военных и граждан предприятий заставляют голосовать за партию Единая Россия и Путина
ПОД СТРАХОМ УВОЛЬНЕНИЯ!
Нам не нужно Правительство, блокирующее личную жизнь, интернет, нарушающее сохранность данных.
Все эти действия финансируются за счёт народа!