Специальное воспитание / Specijalno Vaspitanje / Special Education (Горан Маркович / Goran Markovic) [1977, Югославия, Драма, DVDRip] VO + Sub Rus + Сербский

Reply to topic
DL-List and Torrent activity
Size:  772 MB   |    Registered:  4 years   |    Completed:  0 times

Seeder not seen: Never

 
   
 
 
Author Message

star21 ®

Gender: Female

Longevity: 4 years 1 month

Posts: 551946

Location: Екатеринбург

Post 30-Nov-2015 05:51

[Quote]

Специальное воспитание / Specijalno Vaspitanje / Special Education
Страна: Югославия
Жанр: Драма
Год выпуска: 1977
Продолжительность: 01:43:57
Перевод: Одноголосый закадровый
Cубтитры: русские
Оригинальная аудиодорожка: сербский
Режиссер: Горан Маркович / Goran Markovic
В ролях: Славко Штимац, Беким Фехмиу, Любиша Самарджич, Александар Берчек, Мича Томич, Цвиета Месич, Бранислав Лечич, Ратко Танкосич, Раде Маркович и др.
Описание: Юный правонарушитель из провинциального городка Пэра Трта, приезжает в Белград на перевоспитание. В то же время в Доме для малолетних правонарушителей появляется воспитатель Жарко, который имеет несколько другие методы работы со своими подопечными... Их судьбы объединяются вокруг воспитанника Дома Люпче, который избегает контактов с кем-либо и молчит с момента своего приезда...
Доп. информация: Фильм взят отсюда
Сэмпл: http://multi-up.com/1073982
Качество видео: DVDRip
Формат видео: AVI
Видео: 720x544 (1.32:1), 25 fps, XviD build 50 ~830 kbps avg, 0.08 bit/pixel
Аудио 1: 44.100 kHz, MPEG Layer 3, 2 ch, ~95.87 kbps avg(русский)
Аудио 2: 48 kHz, MPEG Layer 3, 2 ch, ~96.00 kbps avg(сербский)
Формат субтитров: softsub (SRT)
Доп. информация о субтитрах: Русские внешние (группа TiL)

MediaInfo

Общее
Полное имя : F:\С моей озвучкой\Специальное воспитание\Specijalno Vaspitanje.avi
Формат : AVI
Формат/Информация : Audio Video Interleave
Размер файла : 772 Мбайт
Продолжительность : 1 ч. 43 м.
Общий поток : 1038 Кбит/сек
Программа кодирования : VirtualDubModRus 1.5.10.2 (build 2542/release)
Библиотека кодирования : VirtualDubMod build 2542/release
Видео
Идентификатор : 0
Формат : MPEG-4 Visual
Профиль формата : Advanced Simple@L5
Параметр BVOP формата : 1
Параметр QPel формата : Нет
Параметр GMC формата : Без точки перехода
Параметр матрицы формата : Выборочная
Идентификатор кодека : XVID
Идентификатор кодека/Подсказка : XviD
Продолжительность : 1 ч. 43 м.
Битрейт : 832 Кбит/сек
Ширина : 720 пикселей
Высота : 544 пикселя
Соотношение сторон : 4:3
Частота кадров : 25,000 кадров/сек
Цветовое пространство : YUV
Субдискретизация насыщенности : 4:2:0
Битовая глубина : 8 бит
Тип развёртки : Прогрессивная
Метод сжатия : С потерями
Бит/(Пиксели*Кадры) : 0.085
Размер потока : 618 Мбайт (80%)
Библиотека кодирования : XviD 1.2.1 (UTC 2008-12-04)
Аудио #1
Идентификатор : 1
Формат : MPEG Audio
Версия формата : Version 1
Профиль формата : Layer 3
Режим : Joint stereo
Расширение режима : MS Stereo
Идентификатор кодека : 55
Идентификатор кодека/Подсказка : MP3
Продолжительность : 1 ч. 43 м.
Вид битрейта : Постоянный
Битрейт : 96,0 Кбит/сек
Каналы : 2 канала
Частота : 44,1 КГц
Метод сжатия : С потерями
Размер потока : 71,3 Мбайт (9%)
Выравнивание : Соединение по промежуткам
Продолжительность промежутка : 40 мс. (1,00 видеокадр)
Время предзагрузки промежутка : 522 мс.
Библиотека кодирования : LAME3.96
Аудио #2
Идентификатор : 2
Формат : MPEG Audio
Версия формата : Version 1
Профиль формата : Layer 3
Режим : Joint stereo
Расширение режима : MS Stereo
Идентификатор кодека : 55
Идентификатор кодека/Подсказка : MP3
Продолжительность : 1 ч. 43 м.
Вид битрейта : Постоянный
Битрейт : 96,0 Кбит/сек
Каналы : 2 канала
Частота : 48,0 КГц
Метод сжатия : С потерями
Размер потока : 71,4 Мбайт (9%)
Выравнивание : Соединение по промежуткам
Продолжительность промежутка : 40 мс. (1,00 видеокадр)
Время предзагрузки промежутка : 504 мс.

Скриншоты

To download the content you need:
1. Download and install torrent client [for Windows] or for mobile system
2. Click on [Download]
Attention.
If the test YOU are NOT a ROBOT - does not work, then You are using an outdated browser.
Install the current browser and click on [Download]
Security: torrent client is allowed by Kaspersky.

[en.asmlocator.ru].t4116.torrent 
Torrent: Registered [ 2015-11-30 05:45 ] · D38675229F73EE23AB719A3B38788F1831B3516B

Download .torrent

Download

16 KB

Status: checked
Completed: 0 times
Size: 772 MB
terms.php
[Profile] [PM]
Display posts:    
Reply to topic

Current time is: 08-Dec 15:47

All times are UTC ± 0



You cannot post new topics in this forum
You cannot reply to topics in this forum
You cannot edit your posts in this forum
You cannot delete your posts in this forum
You cannot vote in polls in this forum
You cannot attach files in this forum
You can download files in this forum
Верим фактам, а не вранью Путина! Факт, что Правительство ведёт Россию к истреблению.
Так как численность населения падает, даже не смотря на приток эмигрантов!
Русская нация вымирает и вырождается, смешиваясь с эмигрантами!
Факт, что военных и граждан предприятий заставляют голосовать за партию Единая Россия и Путина
ПОД СТРАХОМ УВОЛЬНЕНИЯ!
Нам не нужно Правительство, блокирующее личную жизнь, интернет, нарушающее сохранность данных.
Все эти действия финансируются за счёт народа!