Эрнест идет в тюрьму / Эрнест садится в тюрьму / Ernest Goes to Jail (Джон Р. Черри III / John R. Cherry III) [1990, США, Комедия, криминал, семейный, VHSRip] [FullScreen] AVO (Л. Володарский)

Reply to topic
DL-List and Torrent activity
Size:  1.37 GB   |    Registered:  4 years   |    Completed:  1 time

Seeder not seen: 1 month 26 days

 
   
 
 
Author Message

star21 ®

Gender: Female

Longevity: 4 years 1 month

Posts: 551946

Location: Екатеринбург

Post 30-Nov-2015 05:51

[Quote]

Эрнест идет в тюрьму / Эрнест садится в тюрьму / Ernest Goes to Jail
[FullScreen]
Страна: США
Жанр: Комедия, криминал, семейный
Год выпуска: 1990
Продолжительность: 01:21:10
Перевод: Авторский (одноголосый закадровый) Л. Володарский
(перевел название - Эрнест садится в тюрьму)
Cубтитры: нет
Режиссер: Джон Р. Черри III / John R. Cherry III
В ролях: Джим Варни, Гейлард Сартейн, Бил Бердж, Барбара Тайсон, Бэрри Скотт, Рэндал «Текс» Кобб, Ден Льеджант, Чарльз Нэпьер, Джим Конрад, Джеки Уэлш, Мелани Вилер, Джеффри Бакнер Форд, Дэниэл Батлер, Чарли Ламб, Мак Беннетт, Рик Шульман
Описание: Аннотация от alenavova
Третий по счету фильм про Эрнеста П.Уоррелла многие критики считают наиболее удачной картиной киносериала. Другие ограничиваются оценкой "единственная удачная работа". Третьи к своим положительным отзывам добавляют: "Отношение к фильму зависит от вашего возраста и вашего Ай-Кью" (IQ - аббревиатура, означающая уровень умственного развития, который определяется специальными психологическими тестами). Нелишне подметить, что каждая картина сериала входила в сотню ведущих коммерческих фильмов по результатам кинопроката за год. В этой серии Джим Варни играет двойную роль. Обычную - Эрнеста, который работает уборщиком в банке. И необычную - жуткого злодея, который наводит страх на всю тюрьму, в которой сидит. Разумеется, приходит день, когда уголовник выбирается из камеры, а бедный Эрнест оказывается за решеткой.
Доп. информация: Оцифровка VHS (личный архив) и получение VHSRip alenavova
Эксклюзив для rutracker.org. При размещении данного релиза на других сайтах ссылка на автора alenavova обязательна.

Релиз
Сэмпл: https://yadi.sk/i/zx6rX5kLkCg7G
Качество видео: VHSRip
Формат видео: AVI
Видео: 704x528 (1.33:1), 25 fps, XviD build 50 ~2208 kbps avg, 0.24 bit/pixel
Аудио: 48 kHz, AC3 Dolby Digital, 2/0 (L,R) ch, ~192 kbps

MediaInfo

Эрнест садится в тюрьму - Ernest Goes to Jail (by alenavova).avi
Format : AVI
Format/Info : Audio Video Interleave
File size : 1.37 GiB
Duration : 1h 21mn
Overall bit rate : 2 410 Kbps
Movie name : Эрнест садится в тюрьму - Ernest Goes to Jail (by alenavova)
Director : by alenavova
Writing application : VirtualDubMod 1.5.10.3 | www.virtualdub-fr.org || (build 2550/release)
Copyright : Edich2
Comment : RuTracker.org
Video
ID : 0
Format : MPEG-4 Visual
Format profile : Advanced Simple@L5
Format settings, BVOP : 1
Format settings, QPel : No
Format settings, GMC : No warppoints
Format settings, Matrix : Default (MPEG)
Codec ID : XVID
Codec ID/Hint : XviD
Duration : 1h 21mn
Bit rate : 2 209 Kbps
Width : 704 pixels
Height : 528 pixels
Display aspect ratio : 4:3
Frame rate : 25.000 fps
Color space : YUV
Chroma subsampling : 4:2:0
Bit depth : 8 bits
Scan type : Progressive
Compression mode : Lossy
Bits/(Pixel*Frame) : 0.238
Stream size : 1.25 GiB (92%)
Writing library : XviD 1.2.1 (UTC 2008-12-04)
Audio
ID : 1
Format : AC-3
Format/Info : Audio Coding 3
Mode extension : CM (complete main)
Format settings, Endianness : Big
Codec ID : 2000
Duration : 1h 21mn
Bit rate mode : Constant
Bit rate : 192 Kbps
Channel(s) : 2 channels
Channel positions : Front: L R
Sampling rate : 48.0 KHz
Bit depth : 16 bits
Compression mode : Lossy
Stream size : 111 MiB (8%)
Alignment : Split accross interleaves
Interleave, duration : 40 ms (1.00 video frame)
Interleave, preload duration : 500 ms

Скриншоты



To download the content you need:
1. Download and install torrent client [for Windows] or for mobile system
2. Click on [Download]
Attention.
If the test YOU are NOT a ROBOT - does not work, then You are using an outdated browser.
Install the current browser and click on [Download]
Security: torrent client is allowed by Kaspersky.

[en.asmlocator.ru].t4115.torrent 
Torrent: Registered [ 2015-11-30 05:45 ] · 08B4F0DBFC94D300C7502D4C8D6B4DC2D4B9149D

Download .torrent

Download

14 KB

Status: checked
Completed: 1 times
Size: 1.37 GB
terms.php
[Profile] [PM]
Display posts:    
Reply to topic

Current time is: 15-Dec 00:25

All times are UTC ± 0



You cannot post new topics in this forum
You cannot reply to topics in this forum
You cannot edit your posts in this forum
You cannot delete your posts in this forum
You cannot vote in polls in this forum
You cannot attach files in this forum
You can download files in this forum
Верим фактам, а не вранью Путина! Факт, что Правительство ведёт Россию к истреблению.
Так как численность населения падает, даже не смотря на приток эмигрантов!
Русская нация вымирает и вырождается, смешиваясь с эмигрантами!
Факт, что военных и граждан предприятий заставляют голосовать за партию Единая Россия и Путина
ПОД СТРАХОМ УВОЛЬНЕНИЯ!
Нам не нужно Правительство, блокирующее личную жизнь, интернет, нарушающее сохранность данных.
Все эти действия финансируются за счёт народа!