Улицы из золота / Streets Of Gold (Джо Рот / Joe Roth) [1986, США, Драма, спорт, DVDRip] DVO (Екатеринбург Арт) + Original Eng

Reply to topic
DL-List and Torrent activity
Size:  1.45 GB   |    Registered:  4 years   |    Completed:  0 times

Seeder not seen: 26 minutes

 
   
 
 
Author Message

star21 ®

Gender: Female

Longevity: 4 years 1 month

Posts: 551946

Location: Екатеринбург

Post 30-Nov-2015 05:51

[Quote]

Улицы из золота / Streets Of Gold
Страна: США
Жанр: Драма, спорт
Год выпуска: 1986
Продолжительность: 01:28:01
Перевод: Профессиональный (двухголосый закадровый) Екатеринбург Арт
Cубтитры: нет
Оригинальная аудиодорожка: английский
Режиссер: Джо Рот / Joe Roth
В ролях: Клаус Мария Брандауэр, Эдриан Пасдар, Уэсли Снайпс, Анхела Молина, Илья Баскин, Рэйнбоу Харвест, Дэниэл О'Ши, Джон Махони, Джимми Никерсон, Ярослав Стремень, Адам Натан, Майкл Бич
Описание: Замечательный австрийский актер Клаус Мария Брандауэр в роли русского еврея, бывшего советского чемпиона по боксу, уроженца Одессы Алика Ньюмана, которого по причине еврейской национальности у себя на Родине не взяли выступать за сборную СССР на Олимпийских Играх 1976 года, за что Алик избил своего тренера, и его карьера в боксе была завершена.
Алик эмигрировал в США, где вынужден работать посудомойщиком в русском ресторане Клебанова (Илья Баскин) на Брайтон-Бич в Нью-Йорке, и часто напивается.
Однажды Алик посещает подвальные любительские соревнования по боксу, после которых дает понять победителю одного из боев, афроамериканцу Роланду Дженкинсу (Уэсли Снайпс), что "тому еще много чему следует научиться". Разъяренный молодой боксер пытается побить Алика, но у него ничего не выходит. Эту сцену потрясенно наблюдает другой участник любительских соревнований, Тимми Бойл (Эдриан Пасдар), который находит его на следующий день, и просит стать его тренером, чтобы пробиться к вершинам бокса, выбраться из трущоб и разбогатеть.
За звуковую дорожку спасибо Fikaloid
Сэмпл: https://yadi.sk/i/GkbyBMO4kDJyy
Качество видео: DVDRip
Формат видео: AVI
Видео: 704x368 (1.91:1), 25 fps, XviD Final 1.0.3 (build 37) ~1962 kbps avg, 0.30 bit/pixel
Аудио: 48 kHz, AC3 Dolby Digital, 2/0 (L,R) ch, ~192.00 kbps avg
Аудио 2: 48 kHz, MPEG Layer 3, 2 ch, ~192.00 kbps avg

MediaInfo

General
Complete name : C:\Users\User\Desktop\Streets.Of.Gold.avi
Format : AVI
Format/Info : Audio Video Interleave
File size : 1.45 GiB
Duration : 1h 28mn
Overall bit rate : 2 362 Kbps
Writing application : VirtualDubMod 1.5.10.2 (build 2540/release)
Writing library : VirtualDubMod build 2540/release
Video
ID : 0
Format : MPEG-4 Visual
Format profile : Advanced Simple@L5
Format settings, BVOP : 2
Format settings, QPel : No
Format settings, GMC : No warppoints
Format settings, Matrix : Default (H.263)
Muxing mode : Packed bitstream
Codec ID : XVID
Codec ID/Hint : XviD
Duration : 1h 28mn
Bit rate : 1 963 Kbps
Width : 704 pixels
Height : 368 pixels
Display aspect ratio : 1.913
Frame rate : 25.000 fps
Color space : YUV
Chroma subsampling : 4:2:0
Bit depth : 8 bits
Scan type : Progressive
Compression mode : Lossy
Bits/(Pixel*Frame) : 0.303
Stream size : 1.21 GiB (83%)
Writing library : XviD 1.0.3 (UTC 2004-12-20)
Audio #1
ID : 1
Format : AC-3
Format/Info : Audio Coding 3
Mode extension : CM (complete main)
Format settings, Endianness : Big
Codec ID : 2000
Duration : 1h 28mn
Bit rate mode : Constant
Bit rate : 192 Kbps
Channel(s) : 2 channels
Channel positions : Front: L R
Sampling rate : 48.0 KHz
Compression mode : Lossy
Stream size : 121 MiB (8%)
Alignment : Split accross interleaves
Interleave, duration : 40 ms (1.00 video frame)
Interleave, preload duratio : 500 ms
Audio #2
ID : 2
Format : MPEG Audio
Format version : Version 1
Format profile : Layer 3
Mode : Joint stereo
Mode extension : MS Stereo
Codec ID : 55
Codec ID/Hint : MP3
Duration : 1h 28mn
Bit rate mode : Constant
Bit rate : 192 Kbps
Channel(s) : 2 channels
Sampling rate : 48.0 KHz
Compression mode : Lossy
Stream size : 121 MiB (8%)
Alignment : Aligned on interleaves
Interleave, duration : 40 ms (1.00 video frame)
Interleave, preload duratio : 504 ms
Writing library : LAME3.98
Encoding settings : -m j -V 4 -q 2 -lowpass 18.6 -b 192

Скриншоты

To download the content you need:
1. Download and install torrent client [for Windows] or for mobile system
2. Click on [Download]
Attention.
If the test YOU are NOT a ROBOT - does not work, then You are using an outdated browser.
Install the current browser and click on [Download]
Security: torrent client is allowed by Kaspersky.

[en.asmlocator.ru].t4112.torrent 
Torrent: Registered [ 2015-11-30 05:45 ] · A02C6BCFA11683D3B36A9862ECF6B8280354F7E3

Download .torrent

Download

15 KB

Status: checked
Completed: 0 times
Size: 1.45 GB
terms.php
[Profile] [PM]
Display posts:    
Reply to topic

Current time is: 08-Dec 15:41

All times are UTC ± 0



You cannot post new topics in this forum
You cannot reply to topics in this forum
You cannot edit your posts in this forum
You cannot delete your posts in this forum
You cannot vote in polls in this forum
You cannot attach files in this forum
You can download files in this forum
Верим фактам, а не вранью Путина! Факт, что Правительство ведёт Россию к истреблению.
Так как численность населения падает, даже не смотря на приток эмигрантов!
Русская нация вымирает и вырождается, смешиваясь с эмигрантами!
Факт, что военных и граждан предприятий заставляют голосовать за партию Единая Россия и Путина
ПОД СТРАХОМ УВОЛЬНЕНИЯ!
Нам не нужно Правительство, блокирующее личную жизнь, интернет, нарушающее сохранность данных.
Все эти действия финансируются за счёт народа!