Без паники, майор Кардош! / Csak semmi pánik... (Шандор Сеньи / Sándor Szőnyi, Иштван Буйтор / István Bujtor) [1982, Венгрия, детектив, комедия, DVDRip] Dub (Ленфильм) + Sub Rus

Reply to topic
DL-List and Torrent activity
Size:  1.37 GB   |    Registered:  4 years   |    Completed:  0 times

Seeder not seen: 1 year 4 months

 
   
 
 
Author Message

star21 ®

Gender: Female

Longevity: 4 years 1 month

Posts: 551946

Location: Екатеринбург

Post 30-Nov-2015 05:51

[Quote]

Без паники, майор Кардош! / Csak semmi pánik... Страна: Венгрия
Жанр: детектив, комедия
Год выпуска: 1982
Продолжительность: 01:24:36
Перевод: Профессиональный (дублированный) к/с "Ленфильм" (1983)
Роли дублировали: Валерий Кравченко, Александр Липов, Анатолий Столбов, Татьяна Иванова, Борис Аракелов, Алексей Кожевников, Жанна Сухопольская, Владимир Татосов
Cубтитры: русские (только на места без перевода)
Оригинальная аудиодорожка: нет
Режиссер: Шандор Сеньи / Sándor Szőnyi, Иштван Буйтор / István Bujtor
В ролях: Андраш Керн, Иштван Буйтор, Ласло Банхиди, Дьюла Бодроги, Габор Конц, Янош Ковач, Джоко Росич, Ференц Зенте, Петра Хинце, Илона Медвецки, Иштван Хунядкюрти, Дьёрдь Миклошши, Габор Ревицки, Йожеф Секхеи, Хеди Темешши, Аттила Тиль, Сильвия Шунёвски, Ласло Дожа, Кати Рак, Антал Фаркаш, Янош Чани, Ласло Козак, Шандор Мучи
Описание: Второй фильм трилогии о майоре Кардоше и его проницательном напарнике Капельке. Немецкому самолету надлежало в конце войны вывезти из Венгрии королевские драгоценности, но он был сбит над Балатоном. Сокровища вместе с обломками самолета затонули и по сей день покоились на дне озера. И вот в одной из венгерских газет появляется сообщение о том, что в районе города Шайход начинаются работы по поднятию со дна озера самолет с драгоценностями. В это же время некто Сибилла Гудрат из ФРГ сообщает в венгерскую милицию, что ей известно местонахождение украденных во время войны из Будапешта музейных драгоценностей. Майор Кардош берется за дело, помогает ему верный друг яхтсмен Этваш по прозвищу Капелька, но в поисках сокровищ у него много конкурентов...
Доп. информация: Собственный рип. Русские сабы (мои) только на места без перевода: 55:12-55:14, 1:10:01-1:10:05
Сэмпл: http://multi-up.com/1074074
Качество видео: DVDRip
Спасибо dvdbox за
Формат видео: AVI
Видео: XviD, 688x528 (4:3), 25.000 fps, 2118 kbps avg
Аудио: Russian AC3 Dolby Digital, 48 kHz, 2/0 (L,R) ch, 192.00 kbps avg
Формат субтитров: softsub (SRT)
Доп. информация о субтитрах: smit009

MediaInfo

General
Complete name : E:\Do not panic_1982.DVDRip\Do not panic_1982.DVDRip.Dubl.avi
Format : AVI
Format/Info : Audio Video Interleave
File size : 1.37 GiB
Duration : 1h 24mn
Overall bit rate : 2 320 Kbps
Writing application : VirtualDubMod 1.5.10.3 | www.virtualdub-fr.org || (build 2550/release)
Writing library : VirtualDubMod build 2550/release
Video
ID : 0
Format : MPEG-4 Visual
Format profile : Advanced Simple@L5
Format settings, BVOP : 1
Format settings, QPel : No
Format settings, GMC : No warppoints
Format settings, Matrix : Default (MPEG)
Codec ID : XVID
Codec ID/Hint : XviD
Duration : 1h 24mn
Bit rate : 2 118 Kbps
Width : 688 pixels
Height : 528 pixels
Display aspect ratio : 4:3
Frame rate : 25.000 fps
Color space : YUV
Chroma subsampling : 4:2:0
Bit depth : 8 bits
Scan type : Progressive
Compression mode : Lossy
Bits/(Pixel*Frame) : 0.233
Stream size : 1.25 GiB (91%)
Writing library : XviD 73
Audio
ID : 1
Format : AC-3
Format/Info : Audio Coding 3
Mode extension : CM (complete main)
Format settings, Endianness : Big
Codec ID : 2000
Duration : 1h 24mn
Bit rate mode : Constant
Bit rate : 192 Kbps
Channel(s) : 2 channels
Channel positions : Front: L R
Sampling rate : 48.0 KHz
Compression mode : Lossy
Stream size : 116 MiB (8%)
Alignment : Split accross interleaves
Interleave, duration : 40 ms (1.00 video frame)
Interleave, preload duratio : 500 ms

Скриншоты

Фрагмент субтитров

1
00:55:12,932 --> 00:55:14,406
Я едва успел его перехватить!
Ещё раз промахнетесь,
2
01:10:01,436 --> 01:10:02,548
- Кто это к нам катит?!
- Сама госпожа актриса!
3
01:10:04,714 --> 01:10:04,952
За ней!

To download the content you need:
1. Download and install torrent client [for Windows] or for mobile system
2. Click on [Download]
Attention.
If the test YOU are NOT a ROBOT - does not work, then You are using an outdated browser.
Install the current browser and click on [Download]
Security: torrent client is allowed by Kaspersky.

[en.asmlocator.ru].t4111.torrent 
Torrent: Registered [ 2015-11-30 05:45 ] · 246DF928194233967C36FA9E65B3EBB22154DB9F

Download .torrent

Download

14 KB

Status: checked
Completed: 0 times
Size: 1.37 GB
terms.php
[Profile] [PM]
Display posts:    
Reply to topic

Current time is: 14-Dec 21:32

All times are UTC ± 0



You cannot post new topics in this forum
You cannot reply to topics in this forum
You cannot edit your posts in this forum
You cannot delete your posts in this forum
You cannot vote in polls in this forum
You cannot attach files in this forum
You can download files in this forum
Верим фактам, а не вранью Путина! Факт, что Правительство ведёт Россию к истреблению.
Так как численность населения падает, даже не смотря на приток эмигрантов!
Русская нация вымирает и вырождается, смешиваясь с эмигрантами!
Факт, что военных и граждан предприятий заставляют голосовать за партию Единая Россия и Путина
ПОД СТРАХОМ УВОЛЬНЕНИЯ!
Нам не нужно Правительство, блокирующее личную жизнь, интернет, нарушающее сохранность данных.
Все эти действия финансируются за счёт народа!