Охотники за привидениями 2 / Ghostbusters II (Айвен Райтман / Ivan Reitman) [1989, США, Фэнтези, комедия, BDRip] MVO (Видеосервис)

Reply to topic
DL-List and Torrent activity
Size:  1.46 GB   |    Registered:  4 years   |    Completed:  0 times

Seeder not seen: Never

 
   
 
 
Author Message

star21 ®

Gender: Female

Longevity: 4 years 1 month

Posts: 551946

Location: Екатеринбург

Post 30-Nov-2015 05:51

[Quote]

Охотники за привидениями 2 / Ghostbusters II
«Привидения вернулись... и напрасно!»
- Год выпуска: 1989
Выпущено: США / Columbia Pictures Corporation
Жанр: фэнтези, комедия
Продолжительность: 01:48:19
Перевод: Профессиональный (многоголосый закадровый) BD EUR / Видеосервис
Cубтитры: нет-Режиссер:
Айвен Райтман / Ivan Reitman-В ролях:
Билл Мюррей (Dr. Peter Venkman), Дэн Эйкройд (Dr. Raymond Stantz), Сигурни Уивер (Dana Barrett), Харольд Рэмис (Dr. Egon Spengler), Рик Морэнис (Louis Tully), Эрни Хадсон (Winston Zeddemore), Энни Поттс (Janine Melnitz), Питер МакНикол (Dr. Janosz Poha), Харрис Юлин (The Judge), Дэвид Маргулис (The Mayor of NY), Курт Фуллер (Hardemeyer)-Описание:
Через пять лет все забыли о знаменитых охотниках, равно как и о самих привидениях. Но они и не думали исчезать… А это значит, что для отважной четвёрки снова есть работа. Теперь в их распоряжении новое современное оружие, которое поможет им одолеть даже самого страшного монстра. Облако чёрной энергии нависло над городом, а в городской канализации течёт река зловещего розового киселя. Наступает время последней решающей схватки!-Релиз групп | | [imdb]http://www.imdb.com/title/tt0097428[/imdb] | КиноПоиск | Сэмпл |-Качество: BDRip []
Формат: AVI
Видео: 720x304 (2.37:1), 23.976 fps, XviD build 67 ~1532 kbps avg, 0.29 bit/pixel
Аудио: 48 kHz, AC3 Dolby Digital, 3/2 (L,C,R,l,r) + LFE ch, ~384.00 kbps avg-

Скриншоты

MediaInfo

General
Complete name                            : D:\Ohotniki_za_privideniyami_II_1989_BDRip_by_Dalemake.avi
Format                                   : AVI
Format/Info                              : Audio Video Interleave
File size                                : 1.46 GiB
Duration                                 : 1h 48mn
Overall bit rate                         : 1 926 Kbps
Writing application                      : VirtualDubMod 1.5.10.3 | www.virtualdub-fr.org || (build 2550/release)
Writing library                          : VirtualDubMod build 2550/release
Video
ID                                       : 0
Format                                   : MPEG-4 Visual
Format profile                           : Advanced Simple@L5
Format settings, BVOP                    : 1
Format settings, QPel                    : No
Format settings, GMC                     : No warppoints
Format settings, Matrix                  : Custom
Codec ID                                 : XVID
Codec ID/Hint                            : XviD
Duration                                 : 1h 48mn
Bit rate                                 : 1 533 Kbps
Width                                    : 720 pixels
Height                                   : 304 pixels
Display aspect ratio                     : 2.35:1
Frame rate                               : 23.976 fps
Color space                              : YUV
Chroma subsampling                       : 4:2:0
Bit depth                                : 8 bits
Scan type                                : Progressive
Compression mode                         : Lossy
Bits/(Pixel*Frame)                       : 0.292
Stream size                              : 1.16 GiB (80%)
Writing library                          : XviD 67
Audio
ID                                       : 1
Format                                   : AC-3
Format/Info                              : Audio Coding 3
Mode extension                           : CM (complete main)
Format settings, Endianness              : Big
Codec ID                                 : 2000
Duration                                 : 1h 48mn
Bit rate mode                            : Constant
Bit rate                                 : 384 Kbps
Channel(s)                               : 6 channels
Channel positions                        : Front: L C R, Side: L R, LFE
Sampling rate                            : 48.0 KHz
Bit depth                                : 16 bits
Compression mode                         : Lossy
Stream size                              : 298 MiB (20%)
Alignment                                : Split accross interleaves
Interleave, duration                     : 42 ms (1.00 video frame)
Interleave, preload duration             : 500 ms

Сравнение

http://screenshotcomparison.com/comparison/149398-http://screenshotcomparison.com/comparison/149399-Во всех рипах перевод Видеосервиса
--

To download the content you need:
1. Download and install torrent client [for Windows] or for mobile system
2. Click on [Download]
Attention.
If the test YOU are NOT a ROBOT - does not work, then You are using an outdated browser.
Install the current browser and click on [Download]
Security: torrent client is allowed by Kaspersky.

[en.asmlocator.ru].t4110.torrent 
Torrent: Registered [ 2015-11-30 05:45 ] · 2E6EF717429F8E7704AE39E502DC3C63AA87E85D

Download .torrent

Download

15 KB

Status: checked
Completed: 0 times
Size: 1.46 GB
terms.php
[Profile] [PM]
Display posts:    
Reply to topic

Current time is: 14-Dec 01:08

All times are UTC ± 0



You cannot post new topics in this forum
You cannot reply to topics in this forum
You cannot edit your posts in this forum
You cannot delete your posts in this forum
You cannot vote in polls in this forum
You cannot attach files in this forum
You can download files in this forum
Верим фактам, а не вранью Путина! Факт, что Правительство ведёт Россию к истреблению.
Так как численность населения падает, даже не смотря на приток эмигрантов!
Русская нация вымирает и вырождается, смешиваясь с эмигрантами!
Факт, что военных и граждан предприятий заставляют голосовать за партию Единая Россия и Путина
ПОД СТРАХОМ УВОЛЬНЕНИЯ!
Нам не нужно Правительство, блокирующее личную жизнь, интернет, нарушающее сохранность данных.
Все эти действия финансируются за счёт народа!