Языческая мадонна / A pogány madonna (Дьюла Месарош / Gyula Mészáros) [1980, Венгрия, комедия, детектив, DVDRip] Dub (Ленфильм)

Reply to topic
DL-List and Torrent activity
Size:  1.46 GB   |    Registered:  4 years   |    Completed:  0 times

Seeder not seen: Never

 
   
 
 
Author Message

star21 ®

Gender: Female

Longevity: 4 years 1 month

Posts: 551946

Location: Екатеринбург

Post 30-Nov-2015 05:51

[Quote]

Языческая мадонна / A pogány madonna Страна: Венгрия
Жанр: комедия, детектив
Год выпуска: 1980
Продолжительность: 01:38:11
Перевод: Профессиональный (дублированный) к/с "Ленфильм" (1983)
Роли дублировали: Александр Липов, Анатолий Столбов, Валерий Кравченко, Евгений Леонов-Гладышев, Елена Павловская, Жанна Сухопольская, Игорь Дмитриев
Cубтитры: нет
Оригинальная аудиодорожка: нет
Режиссер: Дьюла Месарош / Gyula Mészáros
В ролях: Иштван Буйтор, Андраш Керн, Ласло Банхиди, Мария Гоор Надь, Ференц Каллаи, Габи Палок, Иштван Ковач, Миклош Бенедек, Миклош Толнаи, Берталан Шольти, Ференц Паланц, Мари Сюр, Йожеф Барш, Ласло Халас, Петер Бенкё, Ференц Зенте, Юдит Хернади, Йожеф Ланг, Ференц Немети, Карой Ковач, Хуго Серенчи, Шандор Тери, Иштван Силадьи, Ласло Немет, Янош Гарич, Марта Бенкё
Описание: Первый фильм трилогии о майоре Кардоше и его напарнике Капельке. Из музея, находящегося в маленьком городке на Балатоне, была похищена уникальная статуя античной богини плодородия Деметры, известная под названием "Языческая мадонна". При этом тяжело ранен служитель музея. Дело о похищении бесценной музейной статуэтки из чистого золота поручили расследовать тогда еще молодому и неопытному следователю Кардошу. Преступники могли бы спать спокойно, но за дело берется огромный, невозмутимый, полный энергии и чувства юмора лейтенант по прозвищу Капелька…
Доп. информация: Собственный рип. Полная оригинальная версия фильма. Во временных отрезках (00 07 16 - 00 11 06, 00 16 10 - 00 17 37, 00 39 50 - 00 42 04, 00 46 03 - 00 47 02, 00 58 27 - 00 59 18, 1 08 58 - 1 11 14, 1 15 32 - 1 18 34) - вставлен одноголосый закадровый перевод. Перевод и озвучка Gadyukko, за что ему отдельная благодарность, а также спасибо sss777sss!
Сэмпл: http://multi-up.com/1074216
Качество видео: DVDRip
Формат видео: AVI
Спасибо dvdbox за
Видео: XviD, 720x544 (4:3), 25.000 fps, 1925 kbps avg
Аудио: Russian AC3 Dolby Digital, 48 kHz, 2/0 (L,R) ch, 192.00 kbps avg

MediaInfo

General
Complete name : E:\The Pagan Madonna\A pogany madonna_1980.DVDRip.Dub.avi
Format : AVI
Format/Info : Audio Video Interleave
File size : 1.46 GiB
Duration : 1h 38mn
Overall bit rate : 2 127 Kbps
Writing application : VirtualDubMod 1.5.10.3 | www.virtualdub-fr.org || (build 2550/release)
Writing library : VirtualDubMod build 2550/release
Video
ID : 0
Format : MPEG-4 Visual
Format profile : Advanced Simple@L5
Format settings, BVOP : 1
Format settings, QPel : No
Format settings, GMC : No warppoints
Format settings, Matrix : Default (MPEG)
Codec ID : XVID
Codec ID/Hint : XviD
Duration : 1h 38mn
Bit rate : 1 925 Kbps
Width : 720 pixels
Height : 544 pixels
Display aspect ratio : 4:3
Frame rate : 25.000 fps
Color space : YUV
Chroma subsampling : 4:2:0
Bit depth : 8 bits
Scan type : Progressive
Compression mode : Lossy
Bits/(Pixel*Frame) : 0.197
Stream size : 1.32 GiB (91%)
Writing library : XviD 73
Audio
ID : 1
Format : AC-3
Format/Info : Audio Coding 3
Mode extension : CM (complete main)
Format settings, Endianness : Big
Codec ID : 2000
Duration : 1h 38mn
Bit rate mode : Constant
Bit rate : 192 Kbps
Channel(s) : 2 channels
Channel positions : Front: L R
Sampling rate : 48.0 KHz
Compression mode : Lossy
Stream size : 135 MiB (9%)
Alignment : Split accross interleaves
Interleave, duration : 40 ms (1.00 video frame)
Interleave, preload duratio : 500 ms

Скриншоты

To download the content you need:
1. Download and install torrent client [for Windows] or for mobile system
2. Click on [Download]
Attention.
If the test YOU are NOT a ROBOT - does not work, then You are using an outdated browser.
Install the current browser and click on [Download]
Security: torrent client is allowed by Kaspersky.

[en.asmlocator.ru].t4109.torrent 
Torrent: Registered [ 2015-11-30 05:45 ] · DA1BE1D185CA0F4EA070B5B440F8B61B4CFA21C8

Download .torrent

Download

15 KB

Status: checked
Completed: 0 times
Size: 1.46 GB
terms.php
[Profile] [PM]
Display posts:    
Reply to topic

Current time is: 10-Dec 08:44

All times are UTC ± 0



You cannot post new topics in this forum
You cannot reply to topics in this forum
You cannot edit your posts in this forum
You cannot delete your posts in this forum
You cannot vote in polls in this forum
You cannot attach files in this forum
You can download files in this forum
Верим фактам, а не вранью Путина! Факт, что Правительство ведёт Россию к истреблению.
Так как численность населения падает, даже не смотря на приток эмигрантов!
Русская нация вымирает и вырождается, смешиваясь с эмигрантами!
Факт, что военных и граждан предприятий заставляют голосовать за партию Единая Россия и Путина
ПОД СТРАХОМ УВОЛЬНЕНИЯ!
Нам не нужно Правительство, блокирующее личную жизнь, интернет, нарушающее сохранность данных.
Все эти действия финансируются за счёт народа!