Опасное обаяние / Опасные чары / Опасен чар / Opasen char (Иван Андонов / Ivan Andonov) [1984, Болгария, комедия, TVRip] Sub Rus (VPN777)

Reply to topic
DL-List and Torrent activity
Size:  697 MB   |    Registered:  4 years   |    Completed:  0 times

Seeder not seen: Never

 
   
 
 
Author Message

star21 ®

Gender: Female

Longevity: 4 years 1 month

Posts: 551946

Location: Екатеринбург

Post 30-Nov-2015 05:51

[Quote]

Опасное обаяние / Опасные чары / Опасен чар / Opasen char
Страна: Болгария
Жанр: комедия
Год выпуска: 1984
Продолжительность: 01:26:18
Перевод: Субтитры
Cубтитры: русские
Оригинальная аудиодорожка: Болгарский
Режиссер: Иван Андонов / Ivan Andonov
В ролях: Тодор Колев, Невена Коканова, Стефан Мавродиев, Любен Чаталов, Георги Русев, Татьяна Лолова, Надя Тодорова, Цветана Манева, Margarita Karamiteva, Пётр Слабаков
Описание: Комедия, в которой главный герой является изобретательным мошенником - очаровывает доверчивых женщин, предлагает им руку и сердце...
Доп. информация: рип - VPN777; субтитры - VPN777 - за что ему большая благодарность
За помощь в переводе субтиров большая благодарность
kinopoisk.ru
IMDb
Сэмпл: http://multi-up.com/1074274
Качество видео: TVRip
Формат видео: AVI
Видео: DivX, 576x448 (1,286), 25.000 fps, 1024 kbps, 0.16 bit/pixel
Аудио: MP3, 44.1 kHz, 2 ch, 95.87 kbps

MediaInfo

Общее
Complete name : W:\Opasen char\Opasen char.avi
Format : AVI
Format/Info : Audio Video Interleave
File size : 697 Мбайт
Duration : 1 ч. 26 м.
Overall bit rate : 1130 Кбит/сек
Subject : Opasen Char [PVC]
Writing library : This file was made by AviUtl 0.98a.
Copyright : 1984 - Ivan Andonov; Cast: Todor Kolev, Nevena Kokanova, Stefan Mavrodiev, Liuben Chatalov
Видео
ID : 0
Format : MPEG-4 Visual
Codec ID : DIV3
Codec ID/Hint : DivX 3 Low
Duration : 1 ч. 26 м.
Bit rate : 1024 Кбит/сек
Width : 576 пикселей
Height : 448 пикселей
Display aspect ratio : 1,286
Frame rate : 25,000 кадров/сек
Color space : YUV
Chroma subsampling : 4:2:0
Bit depth : 8 бит
Compression mode : С потерями
Bits/(Pixel*Frame) : 0.159
Stream size : 632 Мбайт (91%)
Аудио
ID : 1
Format : MPEG Audio
Format version : Version 1
Format profile : Layer 3
Mode : Joint stereo
Mode extension : Intensity Stereo + MS Stereo
Codec ID : 55
Codec ID/Hint : MP3
Duration : 1 ч. 26 м.
Bit rate mode : Постоянный
Bit rate : 96,0 Кбит/сек
Channel(s) : 2 канала
Sampling rate : 44,1 КГц
Compression mode : С потерями
Stream size : 59,2 Мбайт (8%)
Alignment : Разделение по промежуткам
Interleave, duration : 40 мс. (1,00 видеокадр)
Interleave, preload duration : 39 мс.

Скриншот c названием фильма

Скриншоты

Титры

1
00:00:00,163 --> 00:00:04,200
БОЛГАРСКОЕ ТЕЛЕВИДЕНИЕ
2
00:00:05,010 --> 00:00:07,605
ОПАСНОЕ ОБАЯНИЕ
3
00:01:31,605 --> 00:01:34,077
Зачем ты снял Владо?
4
00:01:34,226 --> 00:01:36,774
Куда делся мой покойный муж?
5
00:01:36,870 --> 00:01:39,008
Кто это?
6
00:01:39,177 --> 00:01:44,744
- Что здесь написано?
- To my lovely friend Ястребовский.
7
00:01:47,483 --> 00:01:49,863
Фрэнк Ллойд Райт.
8
00:01:50,393 --> 00:01:53,401
И маму мою снял?
9
00:01:53,528 --> 00:01:58,042
И отца? Никого из моих
родных не осталось.
10
00:01:59,374 --> 00:02:01,987
Доска, где тесто раскатываю.
11
00:02:02,028 --> 00:02:05,477
Когда у меня не хватает
средств на настоящую студию,
12
00:02:06,174 --> 00:02:09,176
я вынужден импровизировать.
13
00:02:09,324 --> 00:02:12,877
Какие ещё ты хочешь средства?
Нет у меня! Всё тебе отдала!
14
00:02:13,015 --> 00:02:17,326
Целый день в поликлинике. Вечером тружусь
на кухне, чтобы заработать какую стотинку,
15
00:02:17,455 --> 00:02:20,025
но так и не могу справиться
с твоими расходами.
16
00:02:20,181 --> 00:02:23,523
Ах, дарлинг, зачем ты
позволяешь повседневности
17
00:02:23,625 --> 00:02:26,575
оставлять тёмные тени
под этими чудесными очами?
18
00:02:26,694 --> 00:02:29,769
Ах, ты! Ах, пришли!
19
00:02:29,862 --> 00:02:32,323
Хочу, чтобы моя Леда
надела свой лучший наряд,
20
00:02:32,467 --> 00:02:35,423
чтобы встретить триумф своего лебедя.
21
00:02:35,506 --> 00:02:37,771
Сейчас!
Звонят же!
22
00:02:37,971 --> 00:02:39,471
Архитектор-урбанист
Ястребовский
23
00:02:41,270 --> 00:02:45,418
- Прошу, проходите. - Товарищ Ястребовский,
наконец-то пришёл этот час.
24
00:02:46,110 --> 00:02:48,338
- Проходите.
- Добрый вечер.
25
00:02:52,772 --> 00:02:54,839
- Прошу, проходите.
- Добрый вечер.
26
00:02:54,986 --> 00:02:57,042
Добрый вечер.
27
00:03:03,278 --> 00:03:06,605
- Уже начинаем?
- Минутку, сейчас придёт моя супруга.
тема

To download the content you need:
1. Download and install torrent client [for Windows] or for mobile system
2. Click on [Download]
Attention.
If the test YOU are NOT a ROBOT - does not work, then You are using an outdated browser.
Install the current browser and click on [Download]
Security: torrent client is allowed by Kaspersky.

[en.asmlocator.ru].t4108.torrent 
Torrent: Registered [ 2015-11-30 05:45 ] · 21DA4FF0B198C387814B81FA79DCE36B7175B6D9

Download .torrent

Download

14 KB

Status: checked
Completed: 0 times
Size: 697 MB
terms.php
[Profile] [PM]
Display posts:    
Reply to topic

Current time is: 14-Dec 20:30

All times are UTC ± 0



You cannot post new topics in this forum
You cannot reply to topics in this forum
You cannot edit your posts in this forum
You cannot delete your posts in this forum
You cannot vote in polls in this forum
You cannot attach files in this forum
You can download files in this forum
Верим фактам, а не вранью Путина! Факт, что Правительство ведёт Россию к истреблению.
Так как численность населения падает, даже не смотря на приток эмигрантов!
Русская нация вымирает и вырождается, смешиваясь с эмигрантами!
Факт, что военных и граждан предприятий заставляют голосовать за партию Единая Россия и Путина
ПОД СТРАХОМ УВОЛЬНЕНИЯ!
Нам не нужно Правительство, блокирующее личную жизнь, интернет, нарушающее сохранность данных.
Все эти действия финансируются за счёт народа!