Ради тебя убью любого / Та, ради которой можно убить / A Girl To Kill For (Ричард Оливер / Richard Oliver) [1990, США, детектив, триллер, мелодрама, HDTVRip] DVO + AVO (Юрий Живов)

Reply to topic
DL-List and Torrent activity
Size:  1.58 GB   |    Registered:  4 years   |    Completed:  0 times

Seeder not seen: 1 year 8 months

 
   
 
 
Author Message

star21 ®

Gender: Female

Longevity: 4 years 1 month

Posts: 551946

Location: Екатеринбург

Post 30-Nov-2015 05:51

[Quote]

Ради тебя убью любого / Та, ради которой можно убить / A Girl To Kill For
Страна: США
Жанр: детектив, триллер, мелодрама
Год выпуска: 1990
Продолжительность: 01:24:57
Перевод: Профессиональный (двухголосый закадровый)
Перевод 2: Авторский (одноголосый закадровый) Юрий Живов
[перевел название фильма как "Та, ради которой можно убить"]
Cубтитры: нет
Режиссер: Ричард Оливер / Richard Oliver
В ролях: Карен Остин (Карен), Алекс Корд (Майк), Саша Дженсон (Чак), Карен Медак (Сью), Род МакКэри
Карен Медак (Karen Medak), Саша Дженсон (Sasha Jenson), Алекс Корд (Alex Cord), Карен Остин (Karen Austin), Род МакКери (Rod McCary), Sandy Berumen (Sandy Berumen),
Р. Адам Чэмберс (R. Adam Chambers), Tony Fasce (Tony Fasce), Гай Ремсен (Guy Remsen), Эрик Штерн (Eric Stern)
Описание: Вариант 1. Аннотация от alenavova
Бедный студент Чак был поражен красотой богатой студентки Сью. Первые же минуты их знакомства обещали ему многое. Искушение было слишком велико, чтобы Чак пожелал бороться с ними. И молодой человек, влекомый страстью, предпочел сдаться без боя. Он смирился, когда Сью предложила угнать шикарный автомобиль. Он смирился с мошенничеством в ресторане. Он смирился и с другими мелкими нарушениями закона. А в результате Чак даже не особенно удивился самому чудовищному предложению Сью - убить ради нее человека. Первым кандидатом стал бродяга-алкоголик. Первым, но не последним...
Вариант 2. Студент колледжа влюбляется в богатую наследницу и оказывается вовлеченным в хитроумный преступный план.
Очень удачный эротический триллер с психологическим уклоном. Кэрен Медак дебютировала в роли сексапильной девицы, озабоченной финансовыми проблемами в семье, — деньги, оставленные по наследству, она сможет получить только через 8 лет. А ждать она не хочет. Тут и попадается ей под руку симпатичный, наивный и готовый влюбиться по уши Саша Дженсен. Он на все готов ради взбалмошной, "рисковой" девчонки — смошенничать, угнать машину, вломиться в чужой дом. Игры, подхлестывающие их сексуальную страсть, заходят слишком далеко, когда звучит фраза: "А давай кого-нибудь убъем!"... (М. Иванов)
Доп. информация: За предоставленный рип благодарим Ledy_X
Дорожка с Ю. Живовым ремастерирована, синхронизирована и наложена ale_x2008 при помощи Adobe Audition, iZotope RX2, Sony Vegas и VirtualDubMod.
За оцифрованную с VHS дорожку благодарим - alenavova

Релиз
СЕМПЛ https://yadi.sk/i/cb8_W_vIkEojm
Качество видео: HDTVRip [Исходник 1080i]
Формат видео: AVI
Видео: 720x384 (1.88:1), 25 fps, XviD build 50 ~2250 kbps avg, 0.33 bit/pixel
Аудио: 48 kHz, AC3 Dolby Digital, 2 ch, ~192.00 kbps avg DVO
Аудио 2: 48 kHz, AC3 Dolby Digital, 2 ch, ~192.00 kbps avg AVO

MediaInfo

Та, ради которой можно убить - A Girl To Kill For [Rip by Ledy_X].avi
Format : AVI
Format/Info : Audio Video Interleave
File size : 1.58 GiB
Duration : 1h 25mn
Overall bit rate : 2 649 Kbps
Movie name : Та, ради которой можно убить - A Girl To Kill For [Rip by Ledy_X]
Director : Rip by Ledy_X
Writing application : VirtualDubMod 1.5.10.2 (build 2540/release)
Writing library : VirtualDubMod build 2540/release
Copyright : Edich2
Comment : RuTracker.org
Video
ID : 0
Format : MPEG-4 Visual
Format profile : Advanced Simple@L5
Format settings, BVOP : 2
Format settings, QPel : No
Format settings, GMC : No warppoints
Format settings, Matrix : Default (MPEG)
Codec ID : DX50
Codec ID/Hint : DivX 5
Duration : 1h 25mn
Bit rate : 2 250 Kbps
Width : 720 pixels
Height : 384 pixels
Display aspect ratio : 1.85:1
Frame rate : 25.000 fps
Color space : YUV
Chroma subsampling : 4:2:0
Bit depth : 8 bits
Scan type : Progressive
Compression mode : Lossy
Bits/(Pixel*Frame) : 0.326
Stream size : 1.34 GiB (85%)
Writing library : XviD 1.2.1 (UTC 2008-12-04)
Audio #1
ID : 1
Format : AC-3
Format/Info : Audio Coding 3
Mode extension : CM (complete main)
Format settings, Endianness : Big
Codec ID : 2000
Duration : 1h 25mn
Bit rate mode : Constant
Bit rate : 192 Kbps
Channel(s) : 2 channels
Channel positions : Front: L R
Sampling rate : 48.0 KHz
Bit depth : 16 bits
Compression mode : Lossy
Delay relative to video : 1s 0ms
Stream size : 117 MiB (7%)
Alignment : Split accross interleaves
Interleave, duration : 40 ms (1.00 video frame)
Interleave, preload duration : 500 ms
Audio #2
ID : 2
Format : AC-3
Format/Info : Audio Coding 3
Mode extension : CM (complete main)
Format settings, Endianness : Big
Codec ID : 2000
Duration : 1h 25mn
Bit rate mode : Constant
Bit rate : 192 Kbps
Channel(s) : 2 channels
Channel positions : Front: L R
Sampling rate : 48.0 KHz
Bit depth : 16 bits
Compression mode : Lossy
Delay relative to video : 750ms
Stream size : 117 MiB (7%)
Alignment : Split accross interleaves
Interleave, duration : 40 ms (1.00 video frame)
Interleave, preload duration : 500 ms

Скриншоты


05.11.15 ТОРРЕНТ ПЕРЕЗАЛИТ. ДОБАВЛЕН ПЕРЕВОД AVO.

To download the content you need:
1. Download and install torrent client [for Windows] or for mobile system
2. Click on [Download]
Attention.
If the test YOU are NOT a ROBOT - does not work, then You are using an outdated browser.
Install the current browser and click on [Download]
Security: torrent client is allowed by Kaspersky.

[en.asmlocator.ru].t4107.torrent 
Torrent: Registered [ 2015-11-30 05:45 ] · 544FD73FE8D1383CEB9A542931A21F0839B7A787

Download .torrent

Download

16 KB

Status: checked
Completed: 0 times
Size: 1.58 GB
terms.php
[Profile] [PM]
Display posts:    
Reply to topic

Current time is: 05-Dec 14:33

All times are UTC ± 0



You cannot post new topics in this forum
You cannot reply to topics in this forum
You cannot edit your posts in this forum
You cannot delete your posts in this forum
You cannot vote in polls in this forum
You cannot attach files in this forum
You can download files in this forum
Верим фактам, а не вранью Путина! Факт, что Правительство ведёт Россию к истреблению.
Так как численность населения падает, даже не смотря на приток эмигрантов!
Русская нация вымирает и вырождается, смешиваясь с эмигрантами!
Факт, что военных и граждан предприятий заставляют голосовать за партию Единая Россия и Путина
ПОД СТРАХОМ УВОЛЬНЕНИЯ!
Нам не нужно Правительство, блокирующее личную жизнь, интернет, нарушающее сохранность данных.
Все эти действия финансируются за счёт народа!