Восставший из ада-2. Дорога в ад / Восставший из ада 2 / Hellbound: Hellraiser II (Тони Рэндел / Tony Randel) [1988, Великобритания, США, ужасы, триллер, DVDRip] [FullScreen] 2AVO (Гаврилов (ранний) + Гаврилов (поздний))

Reply to topic
DL-List and Torrent activity
Size:  1.4 GB   |    Registered:  4 years   |    Completed:  0 times

Seeder not seen: Never

 
   
 
 
Author Message

star21 ®

Gender: Female

Longevity: 4 years 1 month

Posts: 551946

Location: Екатеринбург

Post 30-Nov-2015 05:51

[Quote]

Восставший из ада-2. Дорога в ад / Восставший из ада 2 / Hellbound: Hellraiser II
[FullScreen]
Страна: Великобритания, США
Жанр: ужасы, триллер
Год выпуска: 1988
Продолжительность: 01:39:05
Перевод: Авторский (одноголосый закадровый) А.Гаврилов (поздний) с голоса
Перевод: Авторский (одноголосый закадровый) А.Гаврилов (ранний) с VHS
Cубтитры: нет
Режиссер: Тони Рэндел / Tony Randel
В ролях: Шон Чэпмен — Фрэнк Коттон (человек)
Оливер Смит — Фрэнк Коттон (монстр)
Эндрю Робинсон — Ларри Коттон (в книге — Рори Коттон)
Клэр Хиггинс (англ.) — Джулия Коттон
Эшли Лоуренс — Кёрсти Коттон, дочь Ларри Коттона (в книге — она не дочь Рори Коттона, а подруга его и Джулии)
Даг Брэдли — Пинхед (гвоздеголовый сенобит)
Николас Винс — Чейтер (стучащий зубами сенобит)
Саймон Бэмфорд — Баттербол (толстый сенобит)
Грэйс Кирби — Фимейл (женщина-сенобит)
Описание: Аннотация от alenavova
Вторая часть дилогии, так же имеющая литературным первоисточником знаменитый сериал "Книги крови" Клайва Баркера. Молодой режиссер Тони Рэндалл довольно бережно относится к стилистическо-визуальной концепции, заявленной Баркером, из-за чего "Пленники ада" выглядят прямым продолжением не только по содержанию, но и по форме. В наш мир возвращается мачеха Кристины Джулия, сгинувшая в геенне огненной в финале первой серии "Восставшего из ада". Для восстановления своего физического облика ей приходится использовать те же малоприглядные средства, что в свое время и Фрэнку... В это же время Кристина, содержащаяся в психиатрической лечебнице, решает спасти своего томящегося в потусторонней неволе отца, для чего ей снова необходимо проникнуть за ту не всегда видимую и не всегда прочную грань, которая отделяет мир живых от мира не очень живых...
https://ru.wikipedia.org/wiki/%D0%A1%D0%B5%D0%BD%D0...0%B8%D1%82%D1%8B
Доп. информация: За качественный исходник и позднего Гаврилова спасибо ostrvskijjp
Релиз
Сэмпл: https://yadi.sk/i/KvlaMN3xkEii2
Качество видео: DVDRip
Формат видео: AVI
Видео: 640x480 (1.33:1), 23.976 fps, XviD build 50 ~1618 kbps avg, 0.22 bit/pixel
Аудио: 48 kHz, AC3 Dolby Digital, 2/0 (L,R) ch, ~192 kbps (поздний) [by ostrvskijjp]
Аудио 2: 48 kHz, AC3 Dolby Digital, 2/0 (L,R) ch, ~192 kbps (ранний) [by Ванек20090808 и PUSSEN]

MediaInfo

Восставший из ада-2. Дорога в ад - Hellbound. Hellraiser II (by Edich2).avi
Format : AVI
Format/Info : Audio Video Interleave
File size : 1.40 GiB
Duration : 1h 39mn
Overall bit rate : 2 018 Kbps
Movie name : Восставший из ада-2. Дорога в ад - Hellbound. Hellraiser II (by Edich2)
Director : by Edich2
Writing application : VirtualDubMod 1.5.10.2 (build 2540/release)
Comment : RuTracker.org
Video
ID : 0
Format : MPEG-4 Visual
Format profile : Advanced Simple@L5
Format settings, BVOP : 1
Format settings, QPel : No
Format settings, GMC : No warppoints
Format settings, Matrix : Custom
Codec ID : XVID
Codec ID/Hint : XviD
Duration : 1h 39mn
Bit rate : 1 619 Kbps
Width : 640 pixels
Height : 480 pixels
Display aspect ratio : 4:3
Frame rate : 23.976 fps
Color space : YUV
Chroma subsampling : 4:2:0
Bit depth : 8 bits
Scan type : Progressive
Compression mode : Lossy
Bits/(Pixel*Frame) : 0.220
Stream size : 1.12 GiB (80%)
Writing library : XviD 1.2.1 (UTC 2008-12-04)
Audio #1
ID : 1
Format : AC-3
Format/Info : Audio Coding 3
Mode extension : CM (complete main)
Format settings, Endianness : Big
Codec ID : 2000
Duration : 1h 39mn
Bit rate mode : Constant
Bit rate : 192 Kbps
Channel(s) : 2 channels
Channel positions : Front: L R
Sampling rate : 48.0 KHz
Bit depth : 16 bits
Compression mode : Lossy
Stream size : 136 MiB (10%)
Alignment : Split accross interleaves
Interleave, duration : 42 ms (1.00 video frame)
Interleave, preload duration : 500 ms
Audio #2
ID : 2
Format : AC-3
Format/Info : Audio Coding 3
Mode extension : CM (complete main)
Format settings, Endianness : Big
Codec ID : 2000
Duration : 1h 39mn
Bit rate mode : Constant
Bit rate : 192 Kbps
Channel(s) : 2 channels
Channel positions : Front: L R
Sampling rate : 48.0 KHz
Bit depth : 16 bits
Compression mode : Lossy
Stream size : 136 MiB (10%)
Alignment : Split accross interleaves
Interleave, duration : 42 ms (1.00 video frame)
Interleave, preload duration : 500 ms
ТОРРЕНТ ПЕРЕЗАЛИТ. ЗАМЕНА ВИДЕО НА ОТЛИЧНЫЙ ДВДРИП + ДОБАВЛЕН ПОЗДНИЙ ПЕРЕВОД ГАВРИЛОВА.
НАПОЛНЕНИЕ КАДРА ТАКОЕ ЖЕ КАК В VHS.

To download the content you need:
1. Download and install torrent client [for Windows] or for mobile system
2. Click on [Download]
Attention.
If the test YOU are NOT a ROBOT - does not work, then You are using an outdated browser.
Install the current browser and click on [Download]
Security: torrent client is allowed by Kaspersky.

[en.asmlocator.ru].t4105.torrent 
Torrent: Registered [ 2015-11-30 05:45 ] · D1570BB65DADEB6A6D834BF6EB4638CE59EE0CDB

Download .torrent

Download

14 KB

Status: checked
Completed: 0 times
Size: 1.4 GB
terms.php
[Profile] [PM]
Display posts:    
Reply to topic

Current time is: 08-Dec 16:34

All times are UTC ± 0



You cannot post new topics in this forum
You cannot reply to topics in this forum
You cannot edit your posts in this forum
You cannot delete your posts in this forum
You cannot vote in polls in this forum
You cannot attach files in this forum
You can download files in this forum
Верим фактам, а не вранью Путина! Факт, что Правительство ведёт Россию к истреблению.
Так как численность населения падает, даже не смотря на приток эмигрантов!
Русская нация вымирает и вырождается, смешиваясь с эмигрантами!
Факт, что военных и граждан предприятий заставляют голосовать за партию Единая Россия и Путина
ПОД СТРАХОМ УВОЛЬНЕНИЯ!
Нам не нужно Правительство, блокирующее личную жизнь, интернет, нарушающее сохранность данных.
Все эти действия финансируются за счёт народа!