Восставший из ада / Hellraiser (Клайв Баркер / Clive Barker) [1987, Великобритания, США, ужасы, мистика, DVDRip] [FullScreen] AVO (Андрей Гаврилов (поздний)) + AVO (Андрей Гаврилов (ранний))

Reply to topic
DL-List and Torrent activity
Size:  1.39 GB   |    Registered:  4 years   |    Completed:  0 times

Seeder not seen: Never

 
   
 
 
Author Message

star21 ®

Gender: Female

Longevity: 4 years 1 month

Posts: 551946

Location: Екатеринбург

Post 30-Nov-2015 05:51

[Quote]

Восставший из ада / Hellraiser
[FullScreen]
Страна: Великобритания, США
Жанр: ужасы, мистика
Год выпуска: 1987
Продолжительность: 01:33:21
Перевод: Авторский (одноголосый закадровый) А.Гаврилов (поздний) с голоса
Перевод: Авторский (одноголосый закадровый) А.Гаврилов (ранний) с VHS
Cубтитры: нет
Режиссер: Клайв Баркер / Clive Barker
В ролях: Шон Чэпмен — Фрэнк Коттон (человек)
Оливер Смит — Фрэнк Коттон (монстр)
Эндрю Робинсон — Ларри Коттон (в книге — Рори Коттон)
Клэр Хиггинс (англ.) — Джулия Коттон
Эшли Лоуренс — Кёрсти Коттон, дочь Ларри Коттона (в книге — она не дочь Рори Коттона, а подруга его и Джулии)
Даг Брэдли — Пинхед (гвоздеголовый сенобит)
Николас Винс — Чейтер (стучащий зубами сенобит)
Саймон Бэмфорд — Баттербол (толстый сенобит)
Грэйс Кирби — Фимейл (женщина-сенобит)
Описание: Аннотация от alenavova
Страшная история о дьявольском "кубике Рубика"- странной головоломке, которая, если собрать ее правильно, может открыть врата в ад. Что, кстати, и делает герой фильма по имени Фрэнк. Побыв в аду некоторое время, Фрэнк решает вернуться довольно хитроумным способом, и это у него почти получилось, но... Оказывается, не так-то просто обмануть Кенобитов - грозных и ужасных демонов-сторожей потустороннего мира. Этот фильм явился режиссерским дебютом Клайва Баркера, молодого, но уже признанного на Западе мастера литературы ужасов. "Восставший из ада" вполне заслуживает определенного зрительского интереса, особенно для любителей данного жанра. Картина была удостоена одного из призов жюри Международного фестиваля фантастических фильмов в Авориазе (Франция).
Доп. информация: За качественный исходник и позднего Гаврилова спасибо ostrvskijjp
Релиз
Сэмпл: https://yadi.sk/i/XxavSdtkkG5Ah
Качество видео: DVDRip
Формат видео: AVI
Видео: 640x480 (1.33:1), 23.976 fps, XviD build 50 ~1737 kbps avg, 0.24 bit/pixel
Аудио: 48 kHz, AC3 Dolby Digital, 2/0 (L,R) ch, ~192 kbps Гаврилов (поздний)
Аудио 2: 48 kHz, AC3 Dolby Digital, 2/0 (L,R) ch, ~192 kbps Гаврилов (ранний)

MediaInfo

Восставший из ада - Hellraiser [by Edich2].avi
Format : AVI
Format/Info : Audio Video Interleave
File size : 1.39 GiB
Duration : 1h 33mn
Overall bit rate : 2 136 Kbps
Movie name : Восставший из ада - Hellraiser [by Edich2]
Director : by Edich2
Writing application : VirtualDubMod 1.5.10.2 (build 2540/release)
Comment : RuTracker.org
Video
ID : 0
Format : MPEG-4 Visual
Format profile : Advanced Simple@L5
Format settings, BVOP : 1
Format settings, QPel : No
Format settings, GMC : No warppoints
Format settings, Matrix : Custom
Codec ID : XVID
Codec ID/Hint : XviD
Duration : 1h 33mn
Bit rate : 1 738 Kbps
Width : 640 pixels
Height : 480 pixels
Display aspect ratio : 4:3
Frame rate : 23.976 fps
Color space : YUV
Chroma subsampling : 4:2:0
Bit depth : 8 bits
Scan type : Progressive
Compression mode : Lossy
Bits/(Pixel*Frame) : 0.236
Stream size : 1.13 GiB (81%)
Writing library : XviD 1.2.1 (UTC 2008-12-04)
Audio #1
ID : 1
Format : AC-3
Format/Info : Audio Coding 3
Mode extension : CM (complete main)
Format settings, Endianness : Big
Codec ID : 2000
Duration : 1h 33mn
Bit rate mode : Constant
Bit rate : 192 Kbps
Channel(s) : 2 channels
Channel positions : Front: L R
Sampling rate : 48.0 KHz
Bit depth : 16 bits
Compression mode : Lossy
Stream size : 128 MiB (9%)
Alignment : Split accross interleaves
Interleave, duration : 42 ms (1.00 video frame)
Interleave, preload duration : 500 ms
Audio #2
ID : 2
Format : AC-3
Format/Info : Audio Coding 3
Mode extension : CM (complete main)
Format settings, Endianness : Big
Codec ID : 2000
Duration : 1h 33mn
Bit rate mode : Constant
Bit rate : 192 Kbps
Channel(s) : 2 channels
Channel positions : Front: L R
Sampling rate : 48.0 KHz
Bit depth : 16 bits
Compression mode : Lossy
Delay relative to video : 24ms
Stream size : 128 MiB (9%)
Alignment : Split accross interleaves
Interleave, duration : 42 ms (1.00 video frame)
Interleave, preload duration : 500 ms

To download the content you need:
1. Download and install torrent client [for Windows] or for mobile system
2. Click on [Download]
Attention.
If the test YOU are NOT a ROBOT - does not work, then You are using an outdated browser.
Install the current browser and click on [Download]
Security: torrent client is allowed by Kaspersky.

[en.asmlocator.ru].t4103.torrent 
Torrent: Registered [ 2015-11-30 05:45 ] · 49BB27C0EBAABDB307243DD0500DD89DB8A55274

Download .torrent

Download

14 KB

Status: checked
Completed: 0 times
Size: 1.39 GB
terms.php
[Profile] [PM]
Display posts:    
Reply to topic

Current time is: 12-Dec 02:53

All times are UTC ± 0



You cannot post new topics in this forum
You cannot reply to topics in this forum
You cannot edit your posts in this forum
You cannot delete your posts in this forum
You cannot vote in polls in this forum
You cannot attach files in this forum
You can download files in this forum
Верим фактам, а не вранью Путина! Факт, что Правительство ведёт Россию к истреблению.
Так как численность населения падает, даже не смотря на приток эмигрантов!
Русская нация вымирает и вырождается, смешиваясь с эмигрантами!
Факт, что военных и граждан предприятий заставляют голосовать за партию Единая Россия и Путина
ПОД СТРАХОМ УВОЛЬНЕНИЯ!
Нам не нужно Правительство, блокирующее личную жизнь, интернет, нарушающее сохранность данных.
Все эти действия финансируются за счёт народа!