Каратель / Палач / Карающий / The Punisher (Марк Голдблатт / Mark Goldblatt) [1989, Австралия, США, боевик, триллер, драма, криминал, VHSRip] [FullScreen] AVO (Леонид Володарский)

Reply to topic
DL-List and Torrent activity
Size:  1.37 GB   |    Registered:  4 years 4 months   |    Completed:  0 times

Seeder not seen: Never

 
   
 
 
Author Message

star21 ®

Gender: Female

Longevity: 4 years 4 months

Posts: 551945

Location: Екатеринбург

Post 30-Nov-2015 05:51

[Quote]

Каратель / Палач / Карающий / The Punisher
[FullScreen]
Страна: Австралия, США
Жанр: боевик, триллер, драма, криминал
Год выпуска: 1989
Продолжительность: 01:25:50
Перевод: Авторский (одноголосый закадровый) Леонид Володарский
(перевел название как Палач)
Cубтитры: нет
Режиссер: Марк Голдблатт / Mark Goldblatt
В ролях: Дольф Лундгрен (Frank Castle), Луис Госсет мл. (Jake Berkowitz), Ерун Краббе (Gianni Franco), Ким Мийори (Lady Tanaka), Брайан Маршалл (Dino Moretti), Нэнси Эверхард (Sam Leary), Бэрри Отто (Shake), Брайан Руни (Tommy Franco), Зошка Мизак (Tanaka's Daughter), Кэндзи Ямаки (Sato)
Описание: Аннотация от alenavova
Этот фильм снят в Австралии (и по стилю напоминает знаменитый австралийский сериал "Безумный Макс"), но действие происходит в США... Мафия в ужасе! Неведомый мститель, вылезая откуда-то из канализационных каналов, уничтожает мафиози одного за другим и исчезает неизвестно куда до нового "пришествия", не оставляя никаких следов. Полиция тоже сбилась с ног, разыскивая таинственного "ангела смерти". А в это время похищают сына одного из крупнейших "отцов мафии" Джанни Франко (Краббе). Безутешный отец в своих поисках сталкивается с мстителем вплотную. Им оказывается бывший полицейский Фрэнк Кастл (Лундгрен), потерявший в борьбе с мафией всех родных и озлобившийся на весь мир... Один из популярнейших фильмов здоровенного шведа Дольфа Лундгрена, неплохой боевик с массой острых, захватывающих дух ситуаций, отличное зрелище для ищущих острых переживаний.
Доп. информация: Оцифровка VHS (личный архив) и получение VHSRip alenavova
Эксклюзив для rutracker.org. При размещении данного релиза на других сайтах ссылка на автора alenavova обязательна.

Релиз
Сэмпл: https://yadi.sk/i/PAoZ9bwtkGJ7y
Качество видео: VHSRip
Формат видео: AVI
Видео: 704x528 (1.33:1), 25 fps, XviD build 50 ~2078 kbps avg, 0.22 bit/pixel
Аудио: 48 kHz, AC3 Dolby Digital, 2/0 (L,R) ch, ~192 kbps

MediaInfo

Палач - The Punisher (by alenavova).avi
Format : AVI
Format/Info : Audio Video Interleave
File size : 1.37 GiB
Duration : 1h 25mn
Overall bit rate : 2 280 Kbps
Movie name : Палач - The Punisher (by alenavova)
Director : by alenavova
Writing application : VirtualDubMod 1.5.10.3 | www.virtualdub-fr.org || (build 2550/release)
Copyright : Edich2
Comment : RuTracker.org
Video
ID : 0
Format : MPEG-4 Visual
Format profile : Advanced Simple@L5
Format settings, BVOP : 1
Format settings, QPel : No
Format settings, GMC : No warppoints
Format settings, Matrix : Custom
Codec ID : XVID
Codec ID/Hint : XviD
Duration : 1h 25mn
Bit rate : 2 079 Kbps
Width : 704 pixels
Height : 528 pixels
Display aspect ratio : 4:3
Frame rate : 25.000 fps
Color space : YUV
Chroma subsampling : 4:2:0
Bit depth : 8 bits
Scan type : Progressive
Compression mode : Lossy
Bits/(Pixel*Frame) : 0.224
Stream size : 1.25 GiB (91%)
Writing library : XviD 1.2.1 (UTC 2008-12-04)
Audio
ID : 1
Format : AC-3
Format/Info : Audio Coding 3
Mode extension : CM (complete main)
Format settings, Endianness : Big
Codec ID : 2000
Duration : 1h 25mn
Bit rate mode : Constant
Bit rate : 192 Kbps
Channel(s) : 2 channels
Channel positions : Front: L R
Sampling rate : 48.0 KHz
Bit depth : 16 bits
Compression mode : Lossy
Stream size : 118 MiB (8%)
Alignment : Split accross interleaves
Interleave, duration : 40 ms (1.00 video frame)
Interleave, preload duration : 500 ms

Скриншоты


To download the content you need:
1. Download and install torrent client [for Windows] or for mobile system
2. Click on [Download]
Attention.
If the test YOU are NOT a ROBOT - does not work, then You are using an outdated browser.
Install the current browser and click on [Download]

Do not work with Yandex browser. Uploading files to them is erroneous.
Security: torrent client is allowed by Kaspersky.

[en.asmlocator.ru].t4102.torrent 
Torrent: Registered [ 2015-11-30 05:45 ] · 207CA765B8FCD209C994B14918CF6440799C3909

Download .torrent

Download

14 KB

Status: checked
Completed: 0 times
Size: 1.37 GB
terms.php
[Profile] [PM]
Display posts:    
Reply to topic

Current time is: 03-Apr 04:10

All times are UTC ± 0



You cannot post new topics in this forum
You cannot reply to topics in this forum
You cannot edit your posts in this forum
You cannot delete your posts in this forum
You cannot vote in polls in this forum
You cannot attach files in this forum
You can download files in this forum
Верим фактам, а не вранью Путина! Факт, что Правительство ведёт Россию к истреблению.
Так как численность населения падает, даже не смотря на приток эмигрантов!
Русская нация вымирает и вырождается, смешиваясь с эмигрантами!
Факт, что военных и граждан предприятий заставляют голосовать за партию Единая Россия и Путина
ПОД СТРАХОМ УВОЛЬНЕНИЯ!
Нам не нужно Правительство, блокирующее личную жизнь, интернет, нарушающее сохранность данных.
Все эти действия финансируются за счёт народа!