Смерти вопреки / Нико 2 / Hard to Kill (Брюс Мэлмат / Bruce Malmuth) [1990, США, боевик, триллер, драма, криминал, VHSRip] [FullScreen] AVO (Андрей Гаврилов)

Reply to topic
DL-List and Torrent activity
Size:  1.37 GB   |    Registered:  4 years   |    Completed:  0 times

Seeder not seen: Never

 
   
 
 
Author Message

star21 ®

Gender: Female

Longevity: 4 years 1 month

Posts: 551946

Location: Екатеринбург

Post 30-Nov-2015 05:51

[Quote]

Смерти вопреки / Нико 2 / Hard to Kill
[FullScreen]
Страна: США
Жанр: боевик, триллер, драма, криминал
Год выпуска: 1990
Продолжительность: 01:31:42
Перевод: Авторский (одноголосый закадровый) Андрей Гаврилов
Cубтитры: нет
Режиссер: Брюс Мэлмат / Bruce Malmuth
В ролях: Стивен Сигал, Келли ЛеБрок, Уильям Сэдлер, Фредерик Коффин, Бонни Барроуз, Эндрю Блок, Брэнском Ричмонд, Чарльз Босуэлл, Зэкари Розенкранц, Лу Битти мл
Описание: Аннотация от alenavova
Лейтенанту лос-анджелесской полиции Мэйсону Сторму стычка с людьми гангстера Колабрезе едва не стоила жизни. Бандиты врываются в дом Сторма, убив его жену, сына и фактически его самого, ибо Сторм на несколько лет оказывается в тяжелейшей коме в госпитале. И хотя газеты и знакомые его похоронили, однако его "воскрешение" сразу становится известно мафии. Все дело в том, что за несколько минут до нападения Сторм хорошо упрятал (подальше положишь...) видеопленку с компроматом на местного политика. Правда, эта пленка бравому полицейскому уже не очень-то и нужна, ибо он воплощает в себе и Фемиду и Немезиду - заменяет собой и правосудие и возмездие... Проповедь насилия ради неких возвышенных чувств очень популярная идея для оболванивания: благими намерениями мостится... Особенно, если это красиво подано.
Доп. информация: Оцифровка VHS (личный архив) и получение VHSRip alenavova
Эксклюзив для rutracker.org. При размещении данного релиза на других сайтах ссылка на автора alenavova обязательна.

Релиз
Сэмпл: https://yadi.sk/i/tXiaAM5wkGhzw
Качество видео: VHSRip
Формат видео: AVI
Видео: 704x528 (1.33:1), 25 fps, XviD build 50 ~1933 kbps avg, 0.21 bit/pixel
Аудио: 48 kHz, AC3 Dolby Digital, 2/0 (L,R) ch, ~192 kbps

MediaInfo

Смерти вопреки - Hard to Kill (by alenavova).avi
Format : AVI
Format/Info : Audio Video Interleave
File size : 1.37 GiB
Duration : 1h 31mn
Overall bit rate : 2 135 Kbps
Movie name : Смерти вопреки - Hard to Kill (by alenavova)
Director : by alenavova
Writing application : VirtualDubMod 1.5.10.3 | www.virtualdub-fr.org || (build 2550/release)
Copyright : Edich2
Comment : RuTracker.org
Video
ID : 0
Format : MPEG-4 Visual
Format profile : Advanced Simple@L5
Format settings, BVOP : 1
Format settings, QPel : No
Format settings, GMC : No warppoints
Format settings, Matrix : Custom
Codec ID : XVID
Codec ID/Hint : XviD
Duration : 1h 31mn
Bit rate : 1 934 Kbps
Width : 704 pixels
Height : 528 pixels
Display aspect ratio : 4:3
Frame rate : 25.000 fps
Color space : YUV
Chroma subsampling : 4:2:0
Bit depth : 8 bits
Scan type : Progressive
Compression mode : Lossy
Bits/(Pixel*Frame) : 0.208
Stream size : 1.24 GiB (91%)
Writing library : XviD 1.2.1 (UTC 2008-12-04)
Audio
ID : 1
Format : AC-3
Format/Info : Audio Coding 3
Mode extension : CM (complete main)
Format settings, Endianness : Big
Codec ID : 2000
Duration : 1h 31mn
Bit rate mode : Constant
Bit rate : 192 Kbps
Channel(s) : 2 channels
Channel positions : Front: L R
Sampling rate : 48.0 KHz
Bit depth : 16 bits
Compression mode : Lossy
Stream size : 126 MiB (9%)
Alignment : Split accross interleaves
Interleave, duration : 40 ms (1.00 video frame)
Interleave, preload duration : 500 ms

Скриншоты


To download the content you need:
1. Download and install torrent client [for Windows] or for mobile system
2. Click on [Download]
Attention.
If the test YOU are NOT a ROBOT - does not work, then You are using an outdated browser.
Install the current browser and click on [Download]
Security: torrent client is allowed by Kaspersky.

[en.asmlocator.ru].t4101.torrent 
Torrent: Registered [ 2015-11-30 05:45 ] · D8AE4B80C38384975A3FF5E7FCD63B20D61347E3

Download .torrent

Download

14 KB

Status: checked
Completed: 0 times
Size: 1.37 GB
terms.php
[Profile] [PM]
Display posts:    
Reply to topic

Current time is: 14-Dec 00:44

All times are UTC ± 0



You cannot post new topics in this forum
You cannot reply to topics in this forum
You cannot edit your posts in this forum
You cannot delete your posts in this forum
You cannot vote in polls in this forum
You cannot attach files in this forum
You can download files in this forum
Верим фактам, а не вранью Путина! Факт, что Правительство ведёт Россию к истреблению.
Так как численность населения падает, даже не смотря на приток эмигрантов!
Русская нация вымирает и вырождается, смешиваясь с эмигрантами!
Факт, что военных и граждан предприятий заставляют голосовать за партию Единая Россия и Путина
ПОД СТРАХОМ УВОЛЬНЕНИЯ!
Нам не нужно Правительство, блокирующее личную жизнь, интернет, нарушающее сохранность данных.
Все эти действия финансируются за счёт народа!