Секрет моего успеха / The Secret of My Success (Херберт Росс / Herbert Ross) [1987, США, Комедия, BDRip] Dub + MVO + AVO (Ю. Живов)

Reply to topic
DL-List and Torrent activity
Size:  2.06 GB   |    Registered:  4 years   |    Completed:  0 times

Seeder not seen: Never

 
   
 
 
Author Message

star21 ®

Gender: Female

Longevity: 4 years 1 month

Posts: 551946

Location: Екатеринбург

Post 30-Nov-2015 05:51

[Quote]

Секрет моего успеха / The Secret of My Success
Выпущено: США, Universal Pictures, Rastar Pictures
Жанр: Комедия
Год выпуска: 1987
Продолжительность: 01:50:24
Перевод #1: Профессиональный (дублированный)
Перевод #2: Профессиональный (многоголосый закадровый)
Перевод #3: Авторский (одноголосый закадровый) Ю. Живов
Оригинальная аудио-дорожка: Нет
Cубтитры: Нет
Режиссёр: Херберт Росс / Herbert Ross
В ролях: Майкл Дж. Фокс, Хелен Слейтер, Ричард Джордан, Маргарет Уиттон, Джон Пэнкоу, Кристофер Мерни, Джерри Бэммен, Фред Гвин, Кэрол Энн Сьюзи, Элизабет Франц
Описание: Брантли Фостер — выпускник колледжа из Канзаса — переезжает в Нью-Йорк, чтобы начать карьеру финансиста. Однако компанию, в которой он планировал работать, покупает другая корпорация, и нашему герою отказывают. После нескольких неудачных попыток найти другую работу Брантли устраивается на должность разносчика писем в компанию своего дяди Говарда Прескота.

Качество видео: BDRip [Исходник: The Secret of My Succe$s_1080p_BD-remux_HDCLUB]
Формат видео: AVI
Видео: XviD, 704x384 (16:9), 2075 Кбит/с, 23,976 кадр/с, 0.320 bit/pixel
Аудио #1: Русский, Dolby AC3, 48000 Гц, 192 Кбит/с, 2 канала (Стерео) - Дублированный
Аудио #2: Русский, Dolby AC3, 48000 Гц, 192 Кбит/с, 2 канала (Стерео) - Профессиональный многоголосый
Аудио #3: Русский, Dolby AC3, 48000 Гц, 192 Кбит/с, 2 канала (Стерео) - Авторский одноголосый (Ю. Живов)

Автор рипа - ivandubskoj

MediaInfo

General
Complete name : The.Secret.of.My.Success.1987.Triple.BDRip.avi
Format : AVI
Format/Info : Audio Video Interleave
Format profile : OpenDML
File size : 2.06 GiB
Duration : 1h 50mn
Overall bit rate : 2 665 Kbps
Movie name : Секрет моего успеха / The Secret of My Success (1987) BDRip
Writing application : VirtualDubMod 1.5.10.3 | www.virtualdub-fr.org || (build 2550/release)
Writing library : VirtualDubMod build 2550/release
Copyright : rip by ivandubskoj
Video
ID : 0
Format : MPEG-4 Visual
Format profile : Advanced Simple@L5
Format settings, BVOP : 1
Format settings, QPel : No
Format settings, GMC : No warppoints
Format settings, Matrix : Custom
Codec ID : XVID
Codec ID/Hint : XviD
Duration : 1h 50mn
Bit rate : 2 075 Kbps
Width : 704 pixels
Height : 384 pixels
Display aspect ratio : 16:9
Frame rate : 23.976 fps
Color space : YUV
Chroma subsampling : 4:2:0
Bit depth : 8 bits
Scan type : Progressive
Compression mode : Lossy
Bits/(Pixel*Frame) : 0.320
Stream size : 1.60 GiB (78%)
Writing library : XviD 73
Audio #1
ID : 1
Format : AC-3
Format/Info : Audio Coding 3
Mode extension : CM (complete main)
Codec ID : 2000
Duration : 1h 50mn
Bit rate mode : Constant
Bit rate : 192 Kbps
Channel(s) : 2 channels
Channel positions : Front: L R
Sampling rate : 48.0 KHz
Bit depth : 16 bits
Compression mode : Lossy
Stream size : 152 MiB (7%)
Alignment : Split accross interleaves
Interleave, duration : 96 ms (2.30 video frames)
Interleave, preload duration : 500 ms
Title : Russian, DUB
Audio #2
ID : 2
Format : AC-3
Format/Info : Audio Coding 3
Mode extension : CM (complete main)
Codec ID : 2000
Duration : 1h 50mn
Bit rate mode : Constant
Bit rate : 192 Kbps
Channel(s) : 2 channels
Channel positions : Front: L R
Sampling rate : 48.0 KHz
Bit depth : 16 bits
Compression mode : Lossy
Stream size : 151 MiB (7%)
Alignment : Split accross interleaves
Interleave, duration : 96 ms (2.31 video frames)
Interleave, preload duration : 500 ms
Title : Russian, MVO
Audio #3
ID : 3
Format : AC-3
Format/Info : Audio Coding 3
Mode extension : CM (complete main)
Codec ID : 2000
Duration : 1h 50mn
Bit rate mode : Constant
Bit rate : 192 Kbps
Channel(s) : 2 channels
Channel positions : Front: L R
Sampling rate : 48.0 KHz
Bit depth : 16 bits
Compression mode : Lossy
Stream size : 152 MiB (7%)
Alignment : Split accross interleaves
Interleave, duration : 96 ms (2.30 video frames)
Interleave, preload duration : 500 ms
Title : Russian, AVO [Ю. Живов]

Скриншот c названием фильма

Скриншоты

To download the content you need:
1. Download and install torrent client [for Windows] or for mobile system
2. Click on [Download]
Attention.
If the test YOU are NOT a ROBOT - does not work, then You are using an outdated browser.
Install the current browser and click on [Download]
Security: torrent client is allowed by Kaspersky.

[en.asmlocator.ru].t4100.torrent 
Torrent: Registered [ 2015-11-30 05:45 ] · 26A0B0EC41A3D255DBBF8D9174998C6E6EC72094

Download .torrent

Download

11 KB

Status: checked
Completed: 0 times
Size: 2.06 GB
terms.php
[Profile] [PM]
Display posts:    
Reply to topic

Current time is: 14-Dec 01:27

All times are UTC ± 0



You cannot post new topics in this forum
You cannot reply to topics in this forum
You cannot edit your posts in this forum
You cannot delete your posts in this forum
You cannot vote in polls in this forum
You cannot attach files in this forum
You can download files in this forum
Верим фактам, а не вранью Путина! Факт, что Правительство ведёт Россию к истреблению.
Так как численность населения падает, даже не смотря на приток эмигрантов!
Русская нация вымирает и вырождается, смешиваясь с эмигрантами!
Факт, что военных и граждан предприятий заставляют голосовать за партию Единая Россия и Путина
ПОД СТРАХОМ УВОЛЬНЕНИЯ!
Нам не нужно Правительство, блокирующее личную жизнь, интернет, нарушающее сохранность данных.
Все эти действия финансируются за счёт народа!