Задача со многими неизвестными / Задача с много неизвестни / Zadacha s mnogo neizvestni (Лиляна Пенчева / Liliana Pencheva) [1977, Болгария, Семейный, комедия, приключенческий, TVRip] VO + Sub Rus

Reply to topic
DL-List and Torrent activity
Size:  707 MB   |    Registered:  4 years   |    Completed:  0 times

Seeder not seen: Never

 
   
 
 
Author Message

star21 ®

Gender: Female

Longevity: 4 years 1 month

Posts: 551946

Location: Екатеринбург

Post 30-Nov-2015 05:51

[Quote]

Задача со многими неизвестными / Задача с много неизвестни / Zadacha s mnogo neizvestni
Страна: Болгария
Жанр: Семейный, комедия, приключенческий
Год выпуска: 1977
Продолжительность: 01:27:04
Перевод: Одноголосый закадровый
Cубтитры: русские
Оригинальная аудиодорожка: болгарский
Режиссер: Лиляна Пенчева / Liliana Pencheva
В ролях: Николай Узунов, Владимир Николов, Светозар Неделчев, Кирил Богданов, Мишо Мишев, Тошо Недялков, Оля Стойчева
Описание: В одном городе живут и учатся трое приятелей. Как и другие дети, они играют в футбол, интересуются автомобилями, а также их привлекают детективные фильмы и книги. Однажды один из приятелей заметил, как из машины выкинули какой-то пакет. Это стало поводом, чтобы их фантазия привела к решению самим предпринять своё собственное расследование.
Доп. информация: Фильм взят отсюда
Сэмпл: http://multi-up.com/1074511
Качество видео: TVRip
Формат видео: AVI
Видео: 512x400 (1.28:1), 25 fps, DivX MPEG-4 Low-Motion ~928 kbps avg, 0.18 bit/pixel
Аудио 1: 44.100 kHz, MPEG Layer 3, 2 ch, ~95.87 kbps avg(русский)
Аудио 2: 44.100 kHz, MPEG Layer 3, 2 ch, ~95.87 kbps avg(болгарский)
Формат субтитров: softsub (SRT)
Доп. информация о субтитрах: Русские внешние (gabi077)

MediaInfo

Общее
Полное имя : F:\С моей озвучкой\Задача со многими неизвестными\Zadacha s mnogo neizvestni.avi
Формат : AVI
Формат/Информация : Audio Video Interleave
Размер файла : 707 Мбайт
Продолжительность : 1 ч. 27 м.
Общий поток : 1135 Кбит/сек
Тема : Zadacha s Mnogo Neizvestni [PVC]
Программа кодирования : VirtualDubModRus 1.5.10.2 (build 2542/release)
Библиотека кодирования : VirtualDubMod build 2542/release
Правообладатель : 1977 - Lilqna Pencheva; Cast: Nikolai Uzunov, Vladimir Nikolov, Svetozar Nedelchev
Видео
Идентификатор : 0
Формат : MPEG-4 Visual
Идентификатор кодека : DIV3
Идентификатор кодека/Подсказка : DivX 3 Low
Продолжительность : 1 ч. 27 м.
Битрейт : 929 Кбит/сек
Ширина : 512 пикселей
Высота : 400 пикселей
Соотношение сторон : 1,280
Частота кадров : 25,000 кадров/сек
Цветовое пространство : YUV
Субдискретизация насыщенности : 4:2:0
Битовая глубина : 8 бит
Метод сжатия : С потерями
Бит/(Пиксели*Кадры) : 0.181
Размер потока : 579 Мбайт (82%)
Аудио #1
Идентификатор : 1
Формат : MPEG Audio
Версия формата : Version 1
Профиль формата : Layer 3
Режим : Joint stereo
Расширение режима : MS Stereo
Идентификатор кодека : 55
Идентификатор кодека/Подсказка : MP3
Продолжительность : 1 ч. 27 м.
Вид битрейта : Постоянный
Битрейт : 96,0 Кбит/сек
Каналы : 2 канала
Частота : 44,1 КГц
Метод сжатия : С потерями
Размер потока : 59,7 Мбайт (8%)
Выравнивание : Соединение по промежуткам
Продолжительность промежутка : 40 мс. (1,00 видеокадр)
Время предзагрузки промежутка : 522 мс.
Библиотека кодирования : LAME3.96
Аудио #2
Идентификатор : 2
Формат : MPEG Audio
Версия формата : Version 1
Профиль формата : Layer 3
Режим : Joint stereo
Расширение режима : Intensity Stereo + MS Stereo
Идентификатор кодека : 55
Идентификатор кодека/Подсказка : MP3
Продолжительность : 1 ч. 27 м.
Вид битрейта : Постоянный
Битрейт : 96,0 Кбит/сек
Каналы : 2 канала
Частота : 44,1 КГц
Метод сжатия : С потерями
Размер потока : 59,7 Мбайт (8%)
Выравнивание : Разделение по промежуткам
Продолжительность промежутка : 40 мс. (1,00 видеокадр)
Время предзагрузки промежутка : 500 мс.

Скриншоты

To download the content you need:
1. Download and install torrent client [for Windows] or for mobile system
2. Click on [Download]
Attention.
If the test YOU are NOT a ROBOT - does not work, then You are using an outdated browser.
Install the current browser and click on [Download]
Security: torrent client is allowed by Kaspersky.

[en.asmlocator.ru].t4099.torrent 
Torrent: Registered [ 2015-11-30 05:45 ] · 0F0889955B5788C582EE88F45A33C351F463DD6A

Download .torrent

Download

14 KB

Status: checked
Completed: 0 times
Size: 707 MB
terms.php
[Profile] [PM]
Display posts:    
Reply to topic

Current time is: 14-Dec 01:06

All times are UTC ± 0



You cannot post new topics in this forum
You cannot reply to topics in this forum
You cannot edit your posts in this forum
You cannot delete your posts in this forum
You cannot vote in polls in this forum
You cannot attach files in this forum
You can download files in this forum
Верим фактам, а не вранью Путина! Факт, что Правительство ведёт Россию к истреблению.
Так как численность населения падает, даже не смотря на приток эмигрантов!
Русская нация вымирает и вырождается, смешиваясь с эмигрантами!
Факт, что военных и граждан предприятий заставляют голосовать за партию Единая Россия и Путина
ПОД СТРАХОМ УВОЛЬНЕНИЯ!
Нам не нужно Правительство, блокирующее личную жизнь, интернет, нарушающее сохранность данных.
Все эти действия финансируются за счёт народа!