Скрытый враг / Скрытые / The Hidden (Джек Шолдер / Jack Sholder) [1987, США, ужасы, фантастика, боевик, криминал, DVDRip] [FullScreen] AVO (Гаврилов)

Reply to topic
DL-List and Torrent activity
Size:  1.37 GB   |    Registered:  4 years   |    Completed:  0 times

Seeder not seen: 1 year 8 months

 
   
 
 
Author Message

star21 ®

Gender: Female

Longevity: 4 years 1 month

Posts: 551946

Location: Екатеринбург

Post 30-Nov-2015 05:51

[Quote]

Скрытый враг / Скрытые / The Hidden
[FullScreen]
Страна: США
Жанр: ужасы, фантастика, боевик, криминал
Год выпуска: 1987
Продолжительность: 01:37:15
Перевод: Авторский (одноголосый закадровый) Гаврилов
Cубтитры: нет
Режиссер: Джек Шолдер / Jack Sholder
В ролях: Кайл МакЛаклэн, Майкл Нури, Клаудия Кристиан, Кларенс Фелдер, Клу Гулагер, Эд О'Росс, Уильям Бойетт
Описание: Отдел по расследованию убийств не спит уже которую ночь: по городу катится волна необычных преступлений. Своеобразие их в том, что все преступники — вполне добропорядочные и законопослушные граждане, в которых будто бы сам черт вселился, заставляя их творить всяческие кошмарные, ненормальные вещи. У детектива Тома Бека, ведущего следствие по этому делу, просто голова кругом идет…
И уж, конечно же, меньше всего ему хочется оказывать всяческое содействие присланному сверху сотруднику ФБР Ллойду Гэллагеру, — человеку со странностями, логику которого понять, кажется, абсолютно невозможно. Но что если и вправду это дело рук инопланетян, вселяющихся в тела землян?"
Доп. информация: За качественный исходник спасибо ostrvskijjp
Релиз
Сэмпл: https://yadi.sk/i/vpISbP8tkJSoe
Качество видео: DVDRip
Формат видео: AVI
Видео: 640x480 (1.33:1), 23.976 fps, XviD build 50 ~1807 kbps avg, 0.25 bit/pixel
Аудио: 48 kHz, AC3 Dolby Digital, 2/0 (L,R) ch, ~192 kbps

MediaInfo

Скрытый враг - The Hidden [by Edich2].avi
Format : AVI
Format/Info : Audio Video Interleave
File size : 1.37 GiB
Duration : 1h 37mn
Overall bit rate : 2 013 Kbps
Movie name : Скрытый враг - The Hidden [by Edich2]
Director : by Edich2
Writing application : VirtualDubMod 1.5.10.3 | www.virtualdub-fr.org || (build 2550/release)
Comment : RuTracker.org
Video
ID : 0
Format : MPEG-4 Visual
Format profile : Advanced Simple@L5
Format settings, BVOP : 1
Format settings, QPel : No
Format settings, GMC : No warppoints
Format settings, Matrix : Custom
Codec ID : XVID
Codec ID/Hint : XviD
Duration : 1h 37mn
Bit rate : 1 808 Kbps
Width : 640 pixels
Height : 480 pixels
Display aspect ratio : 4:3
Frame rate : 23.976 fps
Color space : YUV
Chroma subsampling : 4:2:0
Bit depth : 8 bits
Scan type : Progressive
Compression mode : Lossy
Bits/(Pixel*Frame) : 0.245
Stream size : 1.23 GiB (90%)
Writing library : XviD 1.2.1 (UTC 2008-12-04)
Audio
ID : 1
Format : AC-3
Format/Info : Audio Coding 3
Mode extension : CM (complete main)
Format settings, Endianness : Big
Codec ID : 2000
Duration : 1h 37mn
Bit rate mode : Constant
Bit rate : 192 Kbps
Channel(s) : 2 channels
Channel positions : Front: L R
Sampling rate : 48.0 KHz
Bit depth : 16 bits
Compression mode : Lossy
Stream size : 136 MiB (10%)
Alignment : Split accross interleaves
Interleave, duration : 42 ms (1.00 video frame)
Interleave, preload duration : 500 ms

Скриншоты




To download the content you need:
1. Download and install torrent client [for Windows] or for mobile system
2. Click on [Download]
Attention.
If the test YOU are NOT a ROBOT - does not work, then You are using an outdated browser.
Install the current browser and click on [Download]
Security: torrent client is allowed by Kaspersky.

[en.asmlocator.ru].t4097.torrent 
Torrent: Registered [ 2015-11-30 05:45 ] · 84421696BD954E67D89A82FCB36A5E10BB34111C

Download .torrent

Download

14 KB

Status: checked
Completed: 0 times
Size: 1.37 GB
terms.php
[Profile] [PM]
Display posts:    
Reply to topic

Current time is: 12-Dec 16:00

All times are UTC ± 0



You cannot post new topics in this forum
You cannot reply to topics in this forum
You cannot edit your posts in this forum
You cannot delete your posts in this forum
You cannot vote in polls in this forum
You cannot attach files in this forum
You can download files in this forum
Верим фактам, а не вранью Путина! Факт, что Правительство ведёт Россию к истреблению.
Так как численность населения падает, даже не смотря на приток эмигрантов!
Русская нация вымирает и вырождается, смешиваясь с эмигрантами!
Факт, что военных и граждан предприятий заставляют голосовать за партию Единая Россия и Путина
ПОД СТРАХОМ УВОЛЬНЕНИЯ!
Нам не нужно Правительство, блокирующее личную жизнь, интернет, нарушающее сохранность данных.
Все эти действия финансируются за счёт народа!