Убить рефери / A mort l\'arbitre (Жан-Пьер Моки / Jean-Pierre Mocky) [1984, Франция, триллер, драма, DVDRip] Sub Rus + Original Fre

Reply to topic
DL-List and Torrent activity
Size:  918 MB   |    Registered:  4 years 7 months   |    Completed:  0 times

Seeder not seen: Never

 
   
 
 
Author Message

star21 ®

Gender: Female

Longevity: 4 years 8 months

Posts: 551945

Location: Екатеринбург

Post 30-Nov-2015 05:51

[Quote]

Убить рефери / A mort l'arbitre Страна: Франция
Жанр: триллер, драма
Год выпуска: 1984
Продолжительность: 01:20:45
Перевод: Субтитры Северный
Cубтитры: русские
Оригинальная аудиодорожка: французский
Режиссер: Жан-Пьер Моки / Jean-Pierre Mocky
В ролях: Мишель Серро, Кароль Лор, Эдди Митчелл, Жан-Пьер Моки, Лоран Мале, Клод Броссе, Натали Кола, Жеральдин Данон
Описание: Закончился футбольный матч и закончился не так, как хотелось бы болельщикам. Кто виноват? Естественно, судья! Озверевшая толпа выходит из-под контроля и бросается за ним в погоню…
Сэмпл: http://multi-up.com/1074680
Качество видео: DVDRip
Формат видео: AVI
Видео: 640x384 (1.67:1), 25 fps, XviD build 50 ~1387 kbps avg, 0.23 bit/pixel
Аудио: 48 kHz, MPEG Layer 3, 2 ch, ~192.00 kbps avg
Формат субтитров: softsub (SRT)

MediaInfo

Format : AVI
Format/Info : Audio Video Interleave
File size : 918 MiB
Duration : 1h 20mn
Overall bit rate : 1 589 Kbps
Writing application : VirtualDubMod 1.5.10.2 (build 2540/release)
Writing library : VirtualDub build 35491/release
Video
ID : 0
Format : MPEG-4 Visual
Format profile : Advanced Simple@L5
Format settings, BVOP : 1
Format settings, QPel : No
Format settings, GMC : No warppoints
Format settings, Matrix : Default (MPEG)
Codec ID : XVID
Codec ID/Hint : XviD
Duration : 1h 20mn
Bit rate : 1 387 Kbps
Width : 640 pixels
Height : 384 pixels
Display aspect ratio : 1.667
Frame rate : 25.000 fps
Color space : YUV
Chroma subsampling : 4:2:0
Bit depth : 8 bits
Scan type : Progressive
Compression mode : Lossy
Bits/(Pixel*Frame) : 0.226
Stream size : 801 MiB (87%)
Writing library : XviD 1.2.1 (UTC 2008-12-04)
Audio
ID : 1
Format : MPEG Audio
Format version : Version 1
Format profile : Layer 3
Mode : Joint stereo
Codec ID : 55
Codec ID/Hint : MP3
Duration : 1h 20mn
Bit rate mode : Constant
Bit rate : 192 Kbps
Channel(s) : 2 channels
Sampling rate : 48.0 KHz
Compression mode : Lossy
Stream size : 111 MiB (12%)
Alignment : Split accross interleaves
Interleave, duration : 40 ms (1.00 video frame)
Interleave, preload duration : 500 ms

Скриншот c названием фильма

Пример субтитров

1
00:00:22,278 --> 00:00:23,278
Убить рефери!
2
00:00:53,940 --> 00:00:57,350
<i>Что ж, каждому своё, давайте
поговорим о футболе.</i>
3
00:00:57,350 --> 00:01:00,380
<i>Сегодня очень важный день чемпионата:</i>
4
00:01:00,380 --> 00:01:04,090
<i>мы узнаем, какие четыре команды попадут
в следующий сезон Кубка Европы.</i>
5
00:01:04,090 --> 00:01:06,810
<i>Добавим также, что сегодня в нашем городе</i>
6
00:01:06,810 --> 00:01:08,425
<i>будет обсуждаться один
из четвертьфиналов -</i>
7
00:01:08,450 --> 00:01:10,040
<i>это настоящее событие
для любителей футбола.</i>
8
00:01:10,040 --> 00:01:11,370
<i>Стадион уже набит битком:</i>
9
00:01:11,370 --> 00:01:13,260
<i>приехала целая толпа</i>
10
00:01:13,260 --> 00:01:15,170
- фанатов Жёлто-чёрных.
- У меня что, плохой суп?
11
00:01:15,170 --> 00:01:18,350
- Горячо.
- Тогда чего ты хочешь?
12
00:01:18,350 --> 00:01:20,330
Я предпочитаю суп с сэндвичем.
13
00:01:20,330 --> 00:01:24,220
<i>А сейчас я передаю слово месье
Платине, тренеру Жёлто-чёрных.</i>
14
00:01:24,230 --> 00:01:29,420
<i>Меня зовут Платина, я тренирую игроков...</i>
15
00:01:42,910 --> 00:01:51,720
Жёлто-чёрные, вперёд Жёлтые, вперёд
Жёлтые, вперёд Жёлто-чёрные.
16
00:02:15,831 --> 00:02:19,111
Давай, Рико, труби!
Труби, это здорово!
17
00:02:30,230 --> 00:02:33,530
Хорошее место на трибуне Б!
Хорошее место на трибуне Б!
18
00:02:33,530 --> 00:02:36,390
- Я заинтересован. Сколько?
- 300.
19
00:02:36,390 --> 00:02:38,190
- Ты что, рехнулся?
- Эй, тут всё забито.
20
00:02:38,190 --> 00:02:39,600
Ты хочешь посмотреть игру, или нет?
21
00:02:39,600 --> 00:02:40,550
Ну, держи.
Огромное спасибо Северному за перевод фильма!

To download the content you need:
1. Download and install torrent client [for Windows] or for mobile system
2. Click on [Download]
Attention.
If the test YOU are NOT a ROBOT - does not work, then You are using an outdated browser.
Install the current browser and click on [Download]

Do not work with Yandex browser. Uploading files to them is erroneous.
Security: torrent client is allowed by Kaspersky.

[en.asmlocator.ru].t4095.torrent 
Torrent: Registered [ 2015-11-30 05:45 ] · CB3F187D5CC8C574E7E85AC24B612D8402BFA8B3

Download .torrent

Download

18 KB

Status: checked
Completed: 0 times
Size: 918 MB
terms.php
[Profile] [PM]
Display posts:    
Reply to topic

Current time is: 14-Jul 20:26

All times are UTC ± 0



You cannot post new topics in this forum
You cannot reply to topics in this forum
You cannot edit your posts in this forum
You cannot delete your posts in this forum
You cannot vote in polls in this forum
You cannot attach files in this forum
You can download files in this forum