Чудик / Чад / Каннибалы гуманоиды из подземелий / К.Г.П.О. / C.H.U.D. (Дуглас Чик / Douglas Cheek) [1984, США, Ужасы, Мистика, VHSRip] [FullScreen] VO [студия American Video]

Reply to topic
DL-List and Torrent activity
Size:  1.37 GB   |    Registered:  4 years   |    Completed:  0 times

Seeder not seen: 2 years 3 months

 
   
 
 
Author Message

star21 ®

Gender: Female

Longevity: 4 years 1 month

Posts: 551946

Location: Екатеринбург

Post 30-Nov-2015 05:51

[Quote]

Чудик / Чад / Каннибалы гуманоиды из подземелий / К.Г.П.О. / C.H.U.D.
[FullScreen]
Страна: США
Жанр: Ужасы, Мистика
Год выпуска: 1984
Продолжительность: 01:27:09
Перевод: Одноголосый закадровый студии American Video [ПОМОГИТЕ ОПОЗНАТЬ]
Cубтитры: нет
Режиссер: Дуглас Чик / Douglas Cheek
В ролях: Джон Херд, Дэниэл Штерн, Кристофер Керри, Ким Грейст, Джастин Холл
Описание: Аннотация от alenavova
Ужасы из жизни американского метрополитена. Нехорошие чиновники захоронили радиоктивные отходы в неположенном месте. Это привело к появлению в метротунелях Нью-Йорка чудовищ - любителей человечины. Группа общественников - фотограф (Дж.Херт), его подруга-фотомодель (К.Грейст), полицейский (К.Карри) и некоторые другие - пытаются восстановить порядок в метро.
Доп. информация: Оцифровка VHS (личный архив) и получение VHSRip alenavova
Эксклюзив для rutracker.org. При размещении данного релиза на других сайтах ссылка на автора alenavova обязательна.

Релиз
Сэмпл: https://yadi.sk/i/JAeIPhsakM9HJ
Качество видео: VHSRip
Формат видео: AVI
Видео: 704x528 (1.33:1), 25 fps, XviD build 50 ~2043 kbps avg, 0.22 bit/pixel
Аудио: 48 kHz, AC3 Dolby Digital, 2/0 (L,R) ch, ~192 kbps

MediaInfo

Чудик-1 - C.H.U.D. (by alenavova).avi
Format : AVI
Format/Info : Audio Video Interleave
File size : 1.37 GiB
Duration : 1h 27mn
Overall bit rate : 2 246 Kbps
Movie name : Чудик-1 - C.H.U.D. (by alenavova)
Director : by alenavova
Writing application : VirtualDubMod 1.5.10.3 | www.virtualdub-fr.org || (build 2550/release)
Copyright : Edich2
Comment : RuTracker.org
Video
ID : 0
Format : MPEG-4 Visual
Format profile : Advanced Simple@L5
Format settings, BVOP : 1
Format settings, QPel : No
Format settings, GMC : No warppoints
Format settings, Matrix : Custom
Codec ID : XVID
Codec ID/Hint : XviD
Duration : 1h 27mn
Bit rate : 2 044 Kbps
Width : 704 pixels
Height : 528 pixels
Display aspect ratio : 4:3
Frame rate : 25.000 fps
Color space : YUV
Chroma subsampling : 4:2:0
Bit depth : 8 bits
Scan type : Progressive
Compression mode : Lossy
Bits/(Pixel*Frame) : 0.220
Stream size : 1.24 GiB (91%)
Writing library : XviD 1.2.1 (UTC 2008-12-04)
Audio
ID : 1
Format : AC-3
Format/Info : Audio Coding 3
Mode extension : CM (complete main)
Format settings, Endianness : Big
Codec ID : 2000
Duration : 1h 27mn
Bit rate mode : Constant
Bit rate : 192 Kbps
Channel(s) : 2 channels
Channel positions : Front: L R
Sampling rate : 48.0 KHz
Bit depth : 16 bits
Compression mode : Lossy
Stream size : 120 MiB (9%)
Alignment : Split accross interleaves
Interleave, duration : 40 ms (1.00 video frame)
Interleave, preload duration : 500 ms

Скриншоты




To download the content you need:
1. Download and install torrent client [for Windows] or for mobile system
2. Click on [Download]
Attention.
If the test YOU are NOT a ROBOT - does not work, then You are using an outdated browser.
Install the current browser and click on [Download]
Security: torrent client is allowed by Kaspersky.

[en.asmlocator.ru].t4094.torrent 
Torrent: Registered [ 2015-11-30 05:45 ] · 847E591E621796392857178ECFF2B0289B0D08B5

Download .torrent

Download

14 KB

Status: checked
Completed: 0 times
Size: 1.37 GB
terms.php
[Profile] [PM]
Display posts:    
Reply to topic

Current time is: 13-Dec 23:04

All times are UTC ± 0



You cannot post new topics in this forum
You cannot reply to topics in this forum
You cannot edit your posts in this forum
You cannot delete your posts in this forum
You cannot vote in polls in this forum
You cannot attach files in this forum
You can download files in this forum
Верим фактам, а не вранью Путина! Факт, что Правительство ведёт Россию к истреблению.
Так как численность населения падает, даже не смотря на приток эмигрантов!
Русская нация вымирает и вырождается, смешиваясь с эмигрантами!
Факт, что военных и граждан предприятий заставляют голосовать за партию Единая Россия и Путина
ПОД СТРАХОМ УВОЛЬНЕНИЯ!
Нам не нужно Правительство, блокирующее личную жизнь, интернет, нарушающее сохранность данных.
Все эти действия финансируются за счёт народа!