Мегасилы / Мегасила / Мегафорс / Megaforce (Хэл Нидэм / Hal Needham) [1982, США, Гонконг, Фантастический комикс, боевик, DVDRip] AVO (Горчаков)

Reply to topic
DL-List and Torrent activity
Size:  1.42 GB   |    Registered:  4 years   |    Completed:  0 times

Seeder not seen: 1 year 7 months

 
   
 
 
Author Message

star21 ®

Gender: Female

Longevity: 4 years 1 month

Posts: 551946

Location: Екатеринбург

Post 30-Nov-2015 05:51

[Quote]

Мегасилы / Мегасила / Мегафорс / Megaforce
Страна: США, Гонконг
Жанр: Фантастический комикс, боевик
Год выпуска: 1982
Продолжительность: 01:38:53
Перевод: Авторский (одноголосый закадровый) Горчаков
Cубтитры: нет
Режиссер: Хэл Нидэм / Hal Needham
В ролях: Бэрри Бостуик /Barry Bostwick/, Персис Хамбитта, Майкл Бек /Michael Beck/, Эдвард Мулхэр /Edward Mulhare/, Хенри Силва /Henry Silva/
Описание: Приключенческий фильм о солдатах, защищающих народ от порабощения. В нем много боевых действий, а также военной техники: суперлазеры, ракеты, управляемые компьютерами, летающие мотоциклы и тому подобное.
Доп. информация: Благодарность:
Хороший человек - за дорожку AVO
xelon2006 - за синхрон дорожки.

Релиз
Сэмпл: https://yadi.sk/i/wPC4q2h7kPxdw
Качество видео: DVDRip
Формат видео: AVI
Видео: 720x400 (1.80:1), 23.976 fps, XviD build 50 ~1854 kbps avg, 0.27 bit/pixel
Аудио: 48 kHz, AC3 Dolby Digital, 2/0 (L,R) ch, ~192 kbps

MediaInfo

Мегасилы - Megaforce [by Edich2].avi
Format : AVI
Format/Info : Audio Video Interleave
File size : 1.42 GiB
Duration : 1h 38mn
Overall bit rate : 2 056 Kbps
Movie name : Мегасилы - Megaforce [by Edich2]
Director : by Edich2
Writing application : VirtualDubMod 1.5.10.3 | www.virtualdub-fr.org || (build 2550/release)
Comment : RuTracker.org
Video
ID : 0
Format : MPEG-4 Visual
Format profile : Advanced Simple@L5
Format settings, BVOP : 1
Format settings, QPel : No
Format settings, GMC : No warppoints
Format settings, Matrix : Default (MPEG)
Codec ID : XVID
Codec ID/Hint : XviD
Duration : 1h 38mn
Bit rate : 1 855 Kbps
Width : 720 pixels
Height : 400 pixels
Display aspect ratio : 16:9
Frame rate : 23.976 fps
Color space : YUV
Chroma subsampling : 4:2:0
Bit depth : 8 bits
Scan type : Progressive
Compression mode : Lossy
Bits/(Pixel*Frame) : 0.269
Stream size : 1.28 GiB (90%)
Writing library : XviD 1.2.1 (UTC 2008-12-04)
Audio
ID : 1
Format : AC-3
Format/Info : Audio Coding 3
Mode extension : CM (complete main)
Format settings, Endianness : Big
Codec ID : 2000
Duration : 1h 38mn
Bit rate mode : Constant
Bit rate : 192 Kbps
Channel(s) : 2 channels
Channel positions : Front: L R
Sampling rate : 48.0 KHz
Bit depth : 16 bits
Compression mode : Lossy
Stream size : 136 MiB (9%)
Alignment : Aligned on interleaves
Interleave, duration : 42 ms (1.00 video frame)
Interleave, preload duration : 512 ms

Скриншоты



To download the content you need:
1. Download and install torrent client [for Windows] or for mobile system
2. Click on [Download]
Attention.
If the test YOU are NOT a ROBOT - does not work, then You are using an outdated browser.
Install the current browser and click on [Download]
Security: torrent client is allowed by Kaspersky.

[en.asmlocator.ru].t4093.torrent 
Torrent: Registered [ 2015-11-30 05:45 ] · B782BDF8D494A6046AECA06EA76D0F9BC2B922EF

Download .torrent

Download

15 KB

Status: checked
Completed: 0 times
Size: 1.42 GB
terms.php
[Profile] [PM]
Display posts:    
Reply to topic

Current time is: 10-Dec 07:25

All times are UTC ± 0



You cannot post new topics in this forum
You cannot reply to topics in this forum
You cannot edit your posts in this forum
You cannot delete your posts in this forum
You cannot vote in polls in this forum
You cannot attach files in this forum
You can download files in this forum
Верим фактам, а не вранью Путина! Факт, что Правительство ведёт Россию к истреблению.
Так как численность населения падает, даже не смотря на приток эмигрантов!
Русская нация вымирает и вырождается, смешиваясь с эмигрантами!
Факт, что военных и граждан предприятий заставляют голосовать за партию Единая Россия и Путина
ПОД СТРАХОМ УВОЛЬНЕНИЯ!
Нам не нужно Правительство, блокирующее личную жизнь, интернет, нарушающее сохранность данных.
Все эти действия финансируются за счёт народа!