Грязные Танцы / Dirty Dancing (Эмиль Ардолино / Emile Ardolino) [1987, США, драма, мелодрама, музыка, VHSRip] [FullScreen] MVO (Ракурс)

Reply to topic
DL-List and Torrent activity
Size:  1.37 GB   |    Registered:  4 years   |    Completed:  0 times

Seeder not seen: Never

 
   
 
 
Author Message

star21 ®

Gender: Female

Longevity: 4 years 1 month

Posts: 551946

Location: Екатеринбург

Post 30-Nov-2015 05:51

[Quote]

Грязные Танцы / Dirty Dancing
«Танцуй в ритме сердца»
[FullScreen]
Страна: США
Жанр: драма, мелодрама, музыка
Год выпуска: 1987
Продолжительность: 01:40:19
Перевод: Профессиональный (многоголосый закадровый) Ракурс | EA
Cубтитры: нет
Режиссер: Эмиль Ардолино / Emile Ardolino
В ролях: Дженнифер Грей (Baby Houseman), Патрик Суэйзи (Johnny Castle), Джерри Орбак (Jake Houseman), Синтия Роудс (Penny Johnson), Джек Уэстон (Max Kellerman), Джейн Брукер (Lisa Houseman), Келли Бишоп (Marjorie Houseman), Лонни Прайс (Neil Kellerman), Макс Кэнтор (Robbie Gould), Чарльз 'Хони' Коулз (Tito Suarez)
Описание: Начало 60-х годов. 17-летняя Фрэнсис (Грей) с родителями и сестрой приезжает на отдых в пансионат. Там она знакомится с местным учителем танцев (Суэйзи), которому и отдает свою первую любовь. Великолепно снятые чувственно-эротические танцевальные сцены, рок-музыка тех лет, вызывающая ностальгические чувства, и, наконец, удивительное обаяние героев этой истории - вот составные феноменального успеха фильма. Л: ЕАHV. (Иванов М.)
Доп. информация: Оцифровка лицензионной VHS (личный архив) и получение VHSRip alenavova
Эксклюзив для rutracker.org. При размещении данного релиза на других сайтах ссылка на автора alenavova обязательна.

Релиз
Сэмпл: https://yadi.sk/i/dR8Y_yYYkQ8xo
Качество видео: VHSRip
Формат видео: AVI
Видео: 704x528 (1.33:1), 25 fps, XviD build 50 ~1750 kbps avg, 0.19 bit/pixel
Аудио: 48 kHz, AC3 Dolby Digital, 2/0 (L,R) ch, ~192 kbps

MediaInfo

Грязные танцы - Dirty Dancing (by alenavova).avi
Format : AVI
Format/Info : Audio Video Interleave
File size : 1.37 GiB
Duration : 1h 40mn
Overall bit rate : 1 952 Kbps
Movie name : Грязные танцы - Dirty Dancing (by alenavova)
Director : by alenavova
Writing application : VirtualDubMod 1.5.10.3 | www.virtualdub-fr.org || (build 2550/release)
Copyright : Edich2
Comment : Rutracker.org
Video
ID : 0
Format : MPEG-4 Visual
Format profile : Advanced Simple@L5
Format settings, BVOP : 1
Format settings, QPel : No
Format settings, GMC : No warppoints
Format settings, Matrix : Custom
Codec ID : XVID
Codec ID/Hint : XviD
Duration : 1h 40mn
Bit rate : 1 750 Kbps
Width : 704 pixels
Height : 528 pixels
Display aspect ratio : 4:3
Frame rate : 25.000 fps
Color space : YUV
Chroma subsampling : 4:2:0
Bit depth : 8 bits
Scan type : Progressive
Compression mode : Lossy
Bits/(Pixel*Frame) : 0.188
Stream size : 1.23 GiB (90%)
Writing library : XviD 1.2.1 (UTC 2008-12-04)
Audio
ID : 1
Format : AC-3
Format/Info : Audio Coding 3
Mode extension : CM (complete main)
Format settings, Endianness : Big
Codec ID : 2000
Duration : 1h 40mn
Bit rate mode : Constant
Bit rate : 192 Kbps
Channel(s) : 2 channels
Channel positions : Front: L R
Sampling rate : 48.0 KHz
Bit depth : 16 bits
Compression mode : Lossy
Stream size : 138 MiB (10%)
Alignment : Split accross interleaves
Interleave, duration : 40 ms (1.00 video frame)
Interleave, preload duration : 500 ms

Скриншоты


To download the content you need:
1. Download and install torrent client [for Windows] or for mobile system
2. Click on [Download]
Attention.
If the test YOU are NOT a ROBOT - does not work, then You are using an outdated browser.
Install the current browser and click on [Download]
Security: torrent client is allowed by Kaspersky.

[en.asmlocator.ru].t4092.torrent 
Torrent: Registered [ 2015-11-30 05:45 ] · E84BD7DF42DAEAEA539C218CF9CFDB4EA8832BE5

Download .torrent

Download

14 KB

Status: checked
Completed: 0 times
Size: 1.37 GB
terms.php
[Profile] [PM]
Display posts:    
Reply to topic

Current time is: 15-Dec 00:00

All times are UTC ± 0



You cannot post new topics in this forum
You cannot reply to topics in this forum
You cannot edit your posts in this forum
You cannot delete your posts in this forum
You cannot vote in polls in this forum
You cannot attach files in this forum
You can download files in this forum
Верим фактам, а не вранью Путина! Факт, что Правительство ведёт Россию к истреблению.
Так как численность населения падает, даже не смотря на приток эмигрантов!
Русская нация вымирает и вырождается, смешиваясь с эмигрантами!
Факт, что военных и граждан предприятий заставляют голосовать за партию Единая Россия и Путина
ПОД СТРАХОМ УВОЛЬНЕНИЯ!
Нам не нужно Правительство, блокирующее личную жизнь, интернет, нарушающее сохранность данных.
Все эти действия финансируются за счёт народа!