Кошмар на улице Вязов / A Nightmare on Elm Street (Уэс Крэйвен / Wes Craven) [1984, США, ужасы, VHSRip] [FullScreen] AVO (Андрей Гаврилов)

Reply to topic
DL-List and Torrent activity
Size:  1.37 GB   |    Registered:  4 years   |    Completed:  2 times

Seeder not seen: 1 month 21 day

 
   
 
 
Author Message

star21 ®

Gender: Female

Longevity: 4 years 1 month

Posts: 551946

Location: Екатеринбург

Post 30-Nov-2015 05:51

[Quote]

Кошмар на улице Вязов / A Nightmare on Elm Street
[FullScreen]
Страна: США
Жанр: ужасы
Год выпуска: 1984
Продолжительность: 01:27:16
Перевод: Авторский (одноголосый закадровый) Андрей Гаврилов
Cубтитры: нет
Режиссер: Уэс Крэйвен / Wes Craven
В ролях: Хезер Лэнгенкэмп, Рони Блейкли, Джон Сэксон, Аманда Уайсс, Роберт Инглунд, Джонни Депп, Чарльз Флайшер, Джозеф Випп, Джейсу Гарсия, Лин Шэй
Описание: Аннотация от alenavova
Знаменитый фильм ужасов, положивший начало целому сериалу, рассказывает о призраке маньяка-убийцы. Безжалостный и кровожадный Фредди Крюгер был когда-то сожжен жителями улицы Вязов за чудовищные преступления против малолетних. И вот теперь его призрак начинает являться четырем подросткам, живущим на этой улице, в их ночных кошмарах. Фредди не просто снится своим жертвам, он материализуется в их снах, чтобы и дальше совершать свои злодеяния. В борьбу с призраком-убийцей вступает героиня фильма. Это самый удачный фильм из всего сериала, так что ночные кошмары обеспечены не только жителям улицы Вязов. Картина была удостоена приза критики на Международном фестивале фантастических фильмов в Авориазе (Франция). Впервые на экране: Джонни Депп.
Доп. информация: Оцифровка VHS (личный архив) и получение VHSRip alenavova
Эксклюзив для rutracker.org. При размещении данного релиза на других сайтах ссылка на автора alenavova обязательна.

Релиз
Сэмпл: https://yadi.sk/i/F19iT1D7kR6wb
Качество видео: VHSRip
Формат видео: AVI
Видео: 704x528 (1.33:1), 25 fps, XviD build 50 ~2041 kbps avg, 0.22 bit/pixel
Аудио: 48 kHz, AC3 Dolby Digital, 2/0 (L,R) ch, ~192 kbps

MediaInfo

Кошмар на улице Вязов - A Nightmare on Elm Street [by alenavova].avi
Format : AVI
Format/Info : Audio Video Interleave
File size : 1.37 GiB
Duration : 1h 27mn
Overall bit rate : 2 243 Kbps
Movie name : Кошмар на улице Вязов - A Nightmare on Elm Street [by alenavova]
Director : by alenavova
Writing application : VirtualDubMod 1.5.10.3 | www.virtualdub-fr.org || (build 2550/release)
Copyright : Edich2
Comment : RuTracker.org
Video
ID : 0
Format : MPEG-4 Visual
Format profile : Advanced Simple@L5
Format settings, BVOP : 1
Format settings, QPel : No
Format settings, GMC : No warppoints
Format settings, Matrix : Custom
Codec ID : XVID
Codec ID/Hint : XviD
Duration : 1h 27mn
Bit rate : 2 042 Kbps
Width : 704 pixels
Height : 528 pixels
Display aspect ratio : 4:3
Frame rate : 25.000 fps
Color space : YUV
Chroma subsampling : 4:2:0
Bit depth : 8 bits
Scan type : Progressive
Compression mode : Lossy
Bits/(Pixel*Frame) : 0.220
Stream size : 1.24 GiB (91%)
Writing library : XviD 1.2.1 (UTC 2008-12-04)
Audio
ID : 1
Format : AC-3
Format/Info : Audio Coding 3
Mode extension : CM (complete main)
Format settings, Endianness : Big
Codec ID : 2000
Duration : 1h 27mn
Bit rate mode : Constant
Bit rate : 192 Kbps
Channel(s) : 2 channels
Channel positions : Front: L R
Sampling rate : 48.0 KHz
Bit depth : 16 bits
Compression mode : Lossy
Stream size : 120 MiB (9%)
Alignment : Split accross interleaves
Interleave, duration : 40 ms (1.00 video frame)
Interleave, preload duration : 500 ms

Скриншоты


To download the content you need:
1. Download and install torrent client [for Windows] or for mobile system
2. Click on [Download]
Attention.
If the test YOU are NOT a ROBOT - does not work, then You are using an outdated browser.
Install the current browser and click on [Download]
Security: torrent client is allowed by Kaspersky.

[en.asmlocator.ru].t4090.torrent 
Torrent: Registered [ 2015-11-30 05:45 ] · D63A634EBD6F718480AFEA20C1F2DDBCAA5DD665

Download .torrent

Download

14 KB

Status: checked
Completed: 2 times
Size: 1.37 GB
terms.php
[Profile] [PM]
Display posts:    
Reply to topic

Current time is: 10-Dec 07:09

All times are UTC ± 0



You cannot post new topics in this forum
You cannot reply to topics in this forum
You cannot edit your posts in this forum
You cannot delete your posts in this forum
You cannot vote in polls in this forum
You cannot attach files in this forum
You can download files in this forum
Верим фактам, а не вранью Путина! Факт, что Правительство ведёт Россию к истреблению.
Так как численность населения падает, даже не смотря на приток эмигрантов!
Русская нация вымирает и вырождается, смешиваясь с эмигрантами!
Факт, что военных и граждан предприятий заставляют голосовать за партию Единая Россия и Путина
ПОД СТРАХОМ УВОЛЬНЕНИЯ!
Нам не нужно Правительство, блокирующее личную жизнь, интернет, нарушающее сохранность данных.
Все эти действия финансируются за счёт народа!