Одиночка / Le solitaire (Жак Дере / Jacques Deray) [1987, Франция, криминальный боевик, VHSRip-AVC] [Советская прокатная версия] Dub

Reply to topic
DL-List and Torrent activity
Size:  2.43 GB   |    Registered:  4 years   |    Completed:  0 times

Seeder not seen: 1 year 5 months

 
   
 
 
Author Message

star21 ®

Gender: Female

Longevity: 4 years 1 month

Posts: 551946

Location: Екатеринбург

Post 30-Nov-2015 05:51

[Quote]

Одиночка / Le solitaire [Советская прокатная версия]- Страна: Франция
Студия: Cerito Films, Sara Films
Жанр: криминальный боевик
Год выпуска: 1987
Продолжительность: 01:31:05-Перевод: Профессиональный (дублированный) - Киностудия им. М. Горького
Cубтитры: нет
Оригинальная аудиодорожка: нет-Режиссер: Жак Дере / Jacques Deray
В ролях: Жан-Поль Бельмондо, Жан-Пьер Мало, Мишель Бон, Пьер Вернье, Франсуа Дюнойе, Франк Айя, Лоран Жандрон, Жан-Клод Де Горос, Ги Паннекин, Патриция Мальвуазен...
Роли дублировали: Николай Караченцов, Володя Думчев, Алексей Иващенко, Андрей Гриневич, Андрей Мартынов, Валентин Грачёв...-[imdb]http://www.imdb.com/title/tt0091982[/imdb] | Релиз: -Описание: Полицейские-напарники Стан и Симон мечтают выйти в отставку и поселиться в тропическом раю на карибских островах. Но однажды, при попытке задержать в ночном клубе опасного убийцу Шнайдера, Симон погибает во время перестрелки. Преступнику удается скрыться. Стан берет на себя заботу о маленьком сыне Симона Кристиане и клянется любой ценой отомстить убийце своего друга.
Лишь через два года ему удается выследить Шнайдера. Стан начинает безжалостную охоту на преступника, но из-за ожесточенного соперничества между коллегами-полицейскими он вынужден действовать в одиночку...-Доп. информация:
- Спасибо за любезно предоставленную исходную VHS оцифровку.-Семпл: http://sendfile.su/1173279-Тип релиза: VHSRip-AVC
Контейнер: MKV
Видео: 694x484 (1.53:1) @ 740x484, 25.000 fps, AVC, ~3548 kbps, 0.423 bits/pixel
Аудио: Русский, 48.0 KHz, AC3, 1 ch, 192 kbps - Дубляж | © 1988 Киностудия им. М. Горького

MediaInfo

x264.log

x264 [info]: 694x484p 16:15 @ 25/1 fps (cfr)
x264 [info]: using SAR=16/15
x264 [info]: using cpu capabilities: MMX2 SSE2Fast SSSE3 SSE4.2 AVX
x264 [info]: profile High, level 4.0
x264 [info]: cabac=1 ref=16 deblock=1:-1:-1 analyse=0x3:0x133 me=umh subme=11 psy=1 fade_compensate=0.00 psy_rd=1.00:0.00 mixed_ref=1 me_range=48 chroma_me=1 trellis=2 8x8dct=1 cqm=0 deadzone=21,11 fast_pskip=0 chroma_qp_offset=-2 threads=12 lookahead_threads=3 sliced_threads=0 nr=0 decimate=1 interlaced=0 bluray_compat=0 constrained_intra=0 fgo=0 bframes=16 b_pyramid=2 b_adapt=2 b_bias=0 direct=3 weightb=1 open_gop=0 weightp=2 keyint=250 keyint_min=25 scenecut=40 intra_refresh=0 rc=crf mbtree=0 crf=18.0000 qcomp=0.60 qpmin=0 qpmax=69 qpstep=4 ip_ratio=1.40 pb_ratio=1.30 aq=1:0.90
x264 [info]: frame I:788 Avg QP:19.27 size: 37204
x264 [info]: frame P:20934 Avg QP:20.42 size: 27050
x264 [info]: frame B:114920 Avg QP:22.52 size: 16352
x264 [info]: consecutive B-frames: 0.8% 0.5% 1.9% 10.4% 10.5% 24.4% 9.6% 8.2% 5.9% 7.6% 5.1% 5.5% 3.9% 4.0% 1.1% 0.4% 0.2%
x264 [info]: mb I I16..4: 0.9% 91.9% 7.2%
x264 [info]: mb P I16..4: 0.1% 29.6% 1.4% P16..4: 26.1% 32.8% 9.4% 0.4% 0.0% skip: 0.0%
x264 [info]: mb B I16..4: 0.0% 4.1% 0.2% B16..8: 45.2% 30.4% 6.5% direct:12.6% skip: 1.0% L0:53.5% L1:36.4% BI:10.1%
x264 [info]: 8x8 transform intra:95.1% inter:65.4%
x264 [info]: direct mvs spatial:99.9% temporal:0.1%
x264 [info]: coded y,uvDC,uvAC intra: 97.4% 97.8% 62.5% inter: 76.2% 92.7% 5.5%
x264 [info]: i16 v,h,dc,p: 26% 52% 2% 20%
x264 [info]: i8 v,h,dc,ddl,ddr,vr,hd,vl,hu: 13% 9% 5% 10% 16% 16% 11% 11% 10%
x264 [info]: i4 v,h,dc,ddl,ddr,vr,hd,vl,hu: 21% 9% 3% 7% 13% 15% 12% 9% 11%
x264 [info]: i8c dc,h,v,p: 33% 27% 12% 28%
x264 [info]: Weighted P-Frames: Y:25.5% UV:20.9%
x264 [info]: ref P L0: 28.0% 8.7% 16.7% 9.8% 7.9% 5.7% 5.0% 3.1% 2.9% 2.3% 2.2% 1.8% 1.8% 1.5% 1.5% 1.1%
x264 [info]: ref B L0: 46.6% 16.1% 10.1% 6.0% 4.6% 3.8% 3.0% 2.1% 1.8% 1.6% 1.3% 1.2% 1.1% 0.6% 0.2%
x264 [info]: ref B L1: 86.1% 13.9%
x264 [info]: kb/s:3622.31
x264 [info]: encoded 136642 frames, 8.56 fps, 3622.31 kb/s, duration 4:26:09.84
GeneralUnique ID                                : 242432718311628461874472803670346139123 (0xB662D7D9F5C470B981413106910385F3)Complete name                            : Le.Solitaire.1987.VHSRip.rutracker-xfiles.mkvFormat                                   : MatroskaFormat version                           : Version 4 / Version 2File size                                : 2.43 GiBDuration                                 : 1h 31mnOverall bit rate                         : 3 816 KbpsMovie name                               : Le Solitaire 1987 VHSRip rutracker-xfilesEncoded date                             : UTC 2015-11-12 18:01:49Writing application                      : mkvmerge v8.3.0 ('Over the Horizon') 64bitWriting library                          : libebml v1.3.1 + libmatroska v1.4.2Attachements                             : x264.log
VideoID : 1Format : AVCFormat/Info : Advanced Video CodecFormat profile : High@L4Format settings, CABAC : YesFormat settings, ReFrames : 16 framesCodec ID : V_MPEG4/ISO/AVCDuration : 1h 31mnBit rate : 3 548 KbpsWidth : 694 pixelsHeight : 484 pixelsDisplay aspect ratio : 3:2Frame rate mode : ConstantFrame rate : 25.000 fpsColor space : YUVChroma subsampling : 4:2:0Bit depth : 8 bitsScan type : ProgressiveBits/(Pixel*Frame) : 0.423Stream size : 2.26 GiB (93%)Title : Writing library : x264 core 148 r2638kMod 7599210Encoding settings : cabac=1 / ref=16 / deblock=1:-1:-1 / analyse=0x3:0x133 / me=umh / subme=11 / psy=1 / fade_compensate=0.00 / psy_rd=1.00:0.00 / mixed_ref=1 /me_range=48 / chroma_me=1 / trellis=2 / 8x8dct=1 / cqm=0 / deadzone=21,11 / fast_pskip=0 / chroma_qp_offset=-2 / threads=12 / lookahead_threads=3 / sliced_threads=0 / nr=0 /decimate=1 / interlaced=0 / bluray_compat=0 / constrained_intra=0 / fgo=0 / bframes=16 / b_pyramid=2 / b_adapt=2 / b_bias=0 / direct=3 / weightb=1 / open_gop=0 / weightp=2 /keyint=250 / keyint_min=25 / scenecut=40 / intra_refresh=0 / rc=crf / mbtree=0 / crf=18.0000 / qcomp=0.60 / qpmin=0 / qpmax=69 / qpstep=4 / ip_ratio=1.40 / pb_ratio=1.30 / aq=1:0.90Language : RussianDefault : YesForced : NoColor range : LimitedColor primaries : BT.601 PALTransfer characteristics : BT.470 System B, BT.470 System GMatrix coefficients : BT.601
AudioID : 2Format : AC-3Format/Info : Audio Coding 3Mode extension : CM (complete main)Format settings, Endianness : BigCodec ID : A_AC3Duration : 1h 31mnBit rate mode : ConstantBit rate : 192 KbpsChannel(s) : 1 channelChannel positions : Front: CSampling rate : 48.0 KHzCompression mode : LossyStream size : 125 MiB (5%)Title : Дубляж | © 1988 Киностудия им. М. ГорькогоLanguage : RussianDefault : YesForced : No

To download the content you need:
1. Download and install torrent client [for Windows] or for mobile system
2. Click on [Download]
Attention.
If the test YOU are NOT a ROBOT - does not work, then You are using an outdated browser.
Install the current browser and click on [Download]
Security: torrent client is allowed by Kaspersky.

[en.asmlocator.ru].t4089.torrent 
Torrent: Registered [ 2015-11-30 05:45 ] · 8996ADF51B1D1E574CCF68C88EDAFC3C20939330

Download .torrent

Download

13 KB

Status: checked
Completed: 0 times
Size: 2.43 GB
terms.php
[Profile] [PM]
Display posts:    
Reply to topic

Current time is: 08-Dec 11:37

All times are UTC ± 0



You cannot post new topics in this forum
You cannot reply to topics in this forum
You cannot edit your posts in this forum
You cannot delete your posts in this forum
You cannot vote in polls in this forum
You cannot attach files in this forum
You can download files in this forum
Верим фактам, а не вранью Путина! Факт, что Правительство ведёт Россию к истреблению.
Так как численность населения падает, даже не смотря на приток эмигрантов!
Русская нация вымирает и вырождается, смешиваясь с эмигрантами!
Факт, что военных и граждан предприятий заставляют голосовать за партию Единая Россия и Путина
ПОД СТРАХОМ УВОЛЬНЕНИЯ!
Нам не нужно Правительство, блокирующее личную жизнь, интернет, нарушающее сохранность данных.
Все эти действия финансируются за счёт народа!