Гуця / Gucia (Дорота Кендзежавска / Dorota Kędzierzawska) [1985, Польша, семейный, короткометражный, TVRip] VO + Sub Rus + Original Pol

Reply to topic
DL-List and Torrent activity
Size:  194 MB   |    Registered:  4 years 6 months   |    Completed:  1 time
DL-List: None

Seeder not seen: 7 months 16 days

 
   
 
 
Author Message

star21 ®

Gender: Female

Longevity: 4 years 7 months

Posts: 551945

Location: Екатеринбург

Post 30-Nov-2015 05:51

[Quote]

Гуця / Gucia
Страна: Польша
Жанр: семейный, короткометражный
Год выпуска: 1985
Продолжительность: 00:15:08
Перевод: Одноголосый закадровый
Cубтитры: русские
Оригинальная аудиодорожка: польский
Режиссер: Дорота Кендзежавска / Dorota Kędzierzawska
В ролях: Вальдек Калиш / Waldek Kalisz, Агатка Покоровска / Agatka Pokorowska
Описание: По мотивам рассказа Ежи Анджеевского "Первая любовь".
Сэмпл: http://multi-up.com/1075203
Качество видео: TVRip
Формат видео: AVI
Видео: 640x480 (1.33:1), 25 fps, XviD MPEG-4 ~1519 kbps avg, 0.20 bit/pixel
Аудио 1: 44.100 kHz, MPEG Layer 3, 2 ch, ~127.70 kbps avg(Русский)
Аудио 2: 44.100 kHz, MPEG Layer 3, 2 ch, ~128.00 kbps avg(Польский)
Формат субтитров: softsub (SRT)
Доп. информация о субтитрах: Русские внешние (raspisuha)

MediaInfo

Общее
Полное имя : F:\С моей озвучкой\Гуця\Гуця.avi
Формат : AVI
Формат/Информация : Audio Video Interleave
Размер файла : 194 Мбайт
Продолжительность : 15 м.
Общий поток : 1791 Кбит/сек
Программа кодирования : VirtualDubModRus 1.5.10.2 (build 2542/release)
Библиотека кодирования : VirtualDubMod build 2542/release
Видео
Идентификатор : 0
Формат : MPEG-4 Visual
Профиль формата : Advanced Simple@L5
Параметр BVOP формата : 2
Параметр QPel формата : Нет
Параметр GMC формата : Без точки перехода
Параметр матрицы формата : Default (H.263)
Режим смешивания : Сжатый битовый поток
Идентификатор кодека : XVID
Идентификатор кодека/Подсказка : XviD
Продолжительность : 15 м.
Битрейт : 1520 Кбит/сек
Ширина : 640 пикселей
Высота : 480 пикселей
Соотношение сторон : 4:3
Частота кадров : 25,000 кадров/сек
Цветовое пространство : YUV
Субдискретизация насыщенности : 4:2:0
Битовая глубина : 8 бит
Тип развёртки : Прогрессивная
Метод сжатия : С потерями
Бит/(Пиксели*Кадры) : 0.198
Размер потока : 165 Мбайт (85%)
Библиотека кодирования : XviD 67
Аудио #1
Идентификатор : 1
Формат : MPEG Audio
Версия формата : Version 1
Профиль формата : Layer 3
Режим : Joint stereo
Расширение режима : MS Stereo
Идентификатор кодека : 55
Идентификатор кодека/Подсказка : MP3
Продолжительность : 15 м.
Вид битрейта : Постоянный
Битрейт : 128 Кбит/сек
Каналы : 2 канала
Частота : 44,1 КГц
Метод сжатия : С потерями
Размер потока : 13,8 Мбайт (7%)
Выравнивание : Соединение по промежуткам
Продолжительность промежутка : 40 мс. (1,00 видеокадр)
Время предзагрузки промежутка : 522 мс.
Библиотека кодирования : LAME3.96
Аудио #2
Идентификатор : 2
Формат : MPEG Audio
Версия формата : Version 1
Профиль формата : Layer 3
Режим : Joint stereo
Расширение режима : MS Stereo
Идентификатор кодека : 55
Идентификатор кодека/Подсказка : MP3
Продолжительность : 15 м.
Вид битрейта : Постоянный
Битрейт : 128 Кбит/сек
Каналы : 2 канала
Частота : 44,1 КГц
Метод сжатия : С потерями
Размер потока : 13,9 Мбайт (7%)
Выравнивание : Разделение по промежуткам
Продолжительность промежутка : 40 мс. (1,00 видеокадр)
Время предзагрузки промежутка : 500 мс.

Скриншоты

To download the content you need:
1. Download and install torrent client [for Windows] or for mobile system
2. Click on [Download]
Attention.
If the test YOU are NOT a ROBOT - does not work, then You are using an outdated browser.
Install the current browser and click on [Download]

Do not work with Yandex browser. Uploading files to them is erroneous.
Security: torrent client is allowed by Kaspersky.

[en.asmlocator.ru].t4088.torrent 
Torrent: Registered [ 2015-11-30 05:45 ] · F12A05FF5A8073A0F397D7238AC7A7C9928B8995

Download .torrent

Download

16 KB

Status: checked
Completed: 1 times
Size: 194 MB
terms.php
[Profile] [PM]
Display posts:    
Reply to topic

Current time is: 05-Jun 15:19

All times are UTC ± 0



You cannot post new topics in this forum
You cannot reply to topics in this forum
You cannot edit your posts in this forum
You cannot delete your posts in this forum
You cannot vote in polls in this forum
You cannot attach files in this forum
You can download files in this forum
Верим фактам, а не вранью Путина! Факт, что Правительство ведёт Россию к истреблению.
Так как численность населения падает, даже не смотря на приток эмигрантов!
Русская нация вымирает и вырождается, смешиваясь с эмигрантами!
Факт, что военных и граждан предприятий заставляют голосовать за партию Единая Россия и Путина
ПОД СТРАХОМ УВОЛЬНЕНИЯ!
Нам не нужно Правительство, блокирующее личную жизнь, интернет, нарушающее сохранность данных.
Все эти действия финансируются за счёт народа!