Кошмар на улице Вязов 2: Месть Фредди / A Nightmare on Elm Street Part 2: Freddy\'s Revenge (Джек Шолдер / Jack Sholder) [1985, США, ужасы, VHSRip] [FullScreen] AVO (Андрей Гаврилов)

Reply to topic
DL-List and Torrent activity
Size:  1.37 GB   |    Registered:  4 years   |    Completed:  0 times

Seeder not seen: 1 year 8 months

 
   
 
 
Author Message

star21 ®

Gender: Female

Longevity: 4 years 1 month

Posts: 551946

Location: Екатеринбург

Post 30-Nov-2015 05:51

[Quote]

Кошмар на улице Вязов 2: Месть Фредди / A Nightmare on Elm Street Part 2: Freddy's Revenge
[FullScreen]
Страна: США
Жанр: ужасы
Год выпуска: 1985
Продолжительность: 01:22:02
Перевод: Авторский (одноголосый закадровый) Андрей Гаврилов
Cубтитры: нет
Режиссер: Джек Шолдер / Jack Sholder
В ролях: Марк Паттон /Mark Patton/, Ким Майерс /Kim Myers/, Роберт Раслер /Robert Rusler/, Клу Гулагер /Clu Gulager/, Хоуп Лэнг /Hope Lange/, Маршалл Белл /Marshall Bell/, Мелинда О. Фи /Melinda O. Fee/, Том МакФедден /Tom McFadden/, Роберт Инглунд /Robert Englund/
Описание: Аннотация от alenavova
Не надо было семье парнишки Джесси въезжать в злополучный дом на улице Вязов, где в первом фильме злобный мертвец-маньяк-потрошитель Фредди Крюгер являлся полросткам во снах, но резал наяву. 5 лет назад Фредди, вроде, был уничтожен, но уже в финальной сцене когтистая лапа вновь начала свое черное дело. Во второй же серии Фредди развернулся вовсю: решил завладеть не только телом, но и мозгом Джесси, чтобы через него продолжать лить тинэйджерскую кровушку. Критики разгромили картину. Но среди подростков, которым пришелся по вкусу старина Фредди (Роберт Инглунд), фильм пользовался огромным успехом. В нем есть несколько эффектных моментов (например, блестящая сцена с автобусом), и, конечно, его не упрекнешь в отсутствии динамизма.
Доп. информация: Оцифровка VHS (личный архив) и получение VHSRip alenavova
Эксклюзив для rutracker.org. При размещении данного релиза на других сайтах ссылка на автора alenavova обязательна.

Релиз
Сэмпл: https://yadi.sk/i/Fy3IsLSikRLAU
Качество видео: VHSRip
Формат видео: AVI
Видео: 704x528 (1.33:1), 25 fps, XviD build 65 ~2183 kbps avg, 0.23 bit/pixel
Аудио: 48 kHz, AC3 Dolby Digital, 2/0 (L,R) ch, ~192 kbps

MediaInfo

Кошмар на улице Вязов-2. Месть Фредди - A Nightmare on Elm Street Part 2 (by alenavova).avi
Format : AVI
Format/Info : Audio Video Interleave
File size : 1.37 GiB
Duration : 1h 22mn
Overall bit rate : 2 385 Kbps
Movie name : Кошмар на улице Вязов-2. Месть Фредди - A Nightmare on Elm Street Part 2 (by alenavova)
Director : by alenavova
Writing application : VirtualDubMod 1.5.10.3 | www.virtualdub-fr.org || (build 2550/release)
Copyright : Edich2
Comment : RuTracker.org
Video
ID : 0
Format : MPEG-4 Visual
Format profile : Advanced Simple@L5
Format settings, BVOP : 1
Format settings, QPel : No
Format settings, GMC : No warppoints
Format settings, Matrix : Custom
Codec ID : XVID
Codec ID/Hint : XviD
Duration : 1h 22mn
Bit rate : 2 184 Kbps
Width : 704 pixels
Height : 528 pixels
Display aspect ratio : 4:3
Frame rate : 25.000 fps
Color space : YUV
Chroma subsampling : 4:2:0
Bit depth : 8 bits
Scan type : Progressive
Compression mode : Lossy
Bits/(Pixel*Frame) : 0.235
Stream size : 1.25 GiB (92%)
Writing library : XviD 65
Audio
ID : 1
Format : AC-3
Format/Info : Audio Coding 3
Mode extension : CM (complete main)
Format settings, Endianness : Big
Codec ID : 2000
Duration : 1h 22mn
Bit rate mode : Constant
Bit rate : 192 Kbps
Channel(s) : 2 channels
Channel positions : Front: L R
Sampling rate : 48.0 KHz
Bit depth : 16 bits
Compression mode : Lossy
Stream size : 113 MiB (8%)
Alignment : Split accross interleaves
Interleave, duration : 40 ms (1.00 video frame)
Interleave, preload duration : 500 ms

Скриншоты



To download the content you need:
1. Download and install torrent client [for Windows] or for mobile system
2. Click on [Download]
Attention.
If the test YOU are NOT a ROBOT - does not work, then You are using an outdated browser.
Install the current browser and click on [Download]
Security: torrent client is allowed by Kaspersky.

[en.asmlocator.ru].t4087.torrent 
Torrent: Registered [ 2015-11-30 05:45 ] · 0FDFBE6EA2556027ED3DCAB58C2BBBF5A8E90A3A

Download .torrent

Download

14 KB

Status: checked
Completed: 0 times
Size: 1.37 GB
terms.php
[Profile] [PM]
Display posts:    
Reply to topic

Current time is: 08-Dec 10:30

All times are UTC ± 0



You cannot post new topics in this forum
You cannot reply to topics in this forum
You cannot edit your posts in this forum
You cannot delete your posts in this forum
You cannot vote in polls in this forum
You cannot attach files in this forum
You can download files in this forum
Верим фактам, а не вранью Путина! Факт, что Правительство ведёт Россию к истреблению.
Так как численность населения падает, даже не смотря на приток эмигрантов!
Русская нация вымирает и вырождается, смешиваясь с эмигрантами!
Факт, что военных и граждан предприятий заставляют голосовать за партию Единая Россия и Путина
ПОД СТРАХОМ УВОЛЬНЕНИЯ!
Нам не нужно Правительство, блокирующее личную жизнь, интернет, нарушающее сохранность данных.
Все эти действия финансируются за счёт народа!