Коммандос / Коммандо / Commando (Марк Л. Лестер / Mark L. Lester) [1985, США, боевик, триллер, LDRip] [Full Screen] MVO (ОРТ) + AVO (Гаврилов) + Original (Eng)

Reply to topic
DL-List and Torrent activity
Size:  3.45 GB   |    Registered:  4 years   |    Completed:  0 times

Seeder not seen: Never

 
   
 
 
Author Message

star21 ®

Gender: Female

Longevity: 4 years 1 month

Posts: 551946

Location: Екатеринбург

Post 30-Nov-2015 05:51

[Quote]

КоммандоCommando- Страна: США
Жанр: боевик, триллер
Год выпуска: 1985
Продолжительность: 01:30:53-Перевод №1: Профессиональный (многоголосый закадровый) ОРТ
Перевод №2: Авторский (одноголосый закадровый) Андрей Гаврилов
Оригинальная аудиодорожка: английский
Cубтитры: английский
Режиссер: Марк Л. Лестер / Mark L. Lester
В ролях: Арнольд Шварценеггер (John Matrix), Рей Дон Чонг (Cindy), Дэн Хедайя (Arius), Вернон Уэллс (Bennett), Джеймс Олсон (Major General Franklin Kirby), Дэвид Патрик Келли (Sully), Алисса Милано (Jenny Matrix), Билл Дьюк (Cooke), Дрю Снайдер (Lawson), Шэрон Уайатт (Leslie), Майкл ДеЛано (Forrestal), Боб Майнор (Jackson)-Описание: Спецагент в отставке Джон Мэтрикс (Шварценеггер) вынужден опять заняться привычным делом, когда мстительные бандиты-террористы похищают его 11-летнюю дочурку. К финалу Арни накрошил человек пятьсот, ну а от него самого, конечно, пули отскакивают. (Иванов М.)-[imdb]http://www.imdb.com/title/tt0088944[/imdb]
MPAA: R - Лицам до 17 лет обязательно присутствие взрослого-За исходник большое спасибо ermak1990. Перевод Гаврилова также с его коллекции.-Качество: LDRip
Контейнер: MPEG-TS
Видео: MPEG-2 Video, 720x480 (4:3), 4524 kbps, 29,970 fps, Interlaced (Top Field First), 0,437 bpp
Аудио №1: русский / AC3 / 2.0 / 48 kHz / 192 kbps / 16 bit - MVO
Аудио №2: русский / AC3 / 2.0 / 48 kHz / 192 kbps / 16 bit - AVO
Аудио №3: английский / AC3 / 2.0 / 48 kHz / 256 kbps / 16 bit-СЭМПЛ - https://yadi.sk/i/O8SWe97KkRMm9-

Скриншоты

MediaInfo

General
ID : 1 (0x1)
Complete name : E:\Movies\Commando.1985.LD.FS.MVO.AVO.ENG.ts
Format : MPEG-TS
File size : 3.45 GiB
Duration : 1h 30mn
Overall bit rate mode : Variable
Overall bit rate : 5 440 Kbps
Maximum Overall bit rate : 35.5 Mbps
Video
ID : 4113 (0x1011)
Menu ID : 1 (0x1)
Format : MPEG Video
Format version : Version 2
Format profile : Main@Main
Format settings, BVOP : Yes
Format settings, Matrix : Custom
Format settings, GOP : Variable
Format settings, picture structure : Frame
Codec ID : 2
Duration : 1h 30mn
Bit rate mode : Variable
Bit rate : 4 524 Kbps
Maximum bit rate : 9 400 Kbps
Width : 720 pixels
Height : 480 pixels
Display aspect ratio : 4:3
Frame rate : 29.970 fps
Standard : NTSC
Color space : YUV
Chroma subsampling : 4:2:0
Bit depth : 8 bits
Scan type : Interlaced
Scan order : Top Field First
Compression mode : Lossy
Bits/(Pixel*Frame) : 0.437
Time code of first frame : 00:00:00:00
Time code source : Group of pictures header
Stream size : 2.87 GiB (83%)
Color primaries : BT.601 NTSC
Transfer characteristics : BT.601
Matrix coefficients : BT.601
Audio #1
ID : 4352 (0x1100)
Menu ID : 1 (0x1)
Format : AC-3
Format/Info : Audio Coding 3
Mode extension : CM (complete main)
Format settings, Endianness : Big
Codec ID : 129
Duration : 1h 30mn
Bit rate mode : Constant
Bit rate : 192 Kbps
Channel(s) : 2 channels
Channel positions : Front: L R
Sampling rate : 48.0 KHz
Compression mode : Lossy
Stream size : 124 MiB (4%)
Language : Russian
Audio #2
ID : 4353 (0x1101)
Menu ID : 1 (0x1)
Format : AC-3
Format/Info : Audio Coding 3
Mode extension : CM (complete main)
Format settings, Endianness : Big
Codec ID : 129
Duration : 1h 30mn
Bit rate mode : Constant
Bit rate : 192 Kbps
Channel(s) : 2 channels
Channel positions : Front: L R
Sampling rate : 48.0 KHz
Compression mode : Lossy
Stream size : 125 MiB (4%)
Language : Russian
Audio #3
ID : 4354 (0x1102)
Menu ID : 1 (0x1)
Format : AC-3
Format/Info : Audio Coding 3
Mode extension : CM (complete main)
Format settings, Endianness : Big
Codec ID : 129
Duration : 1h 30mn
Bit rate mode : Constant
Bit rate : 256 Kbps
Channel(s) : 2 channels
Channel positions : Front: L R
Sampling rate : 48.0 KHz
Compression mode : Lossy
Stream size : 166 MiB (5%)
Language : English
Text
ID : 4113 (0x1011)-CC3
Menu ID : 1 (0x1)
Format : EIA-608
Muxing mode, more info : Muxed in Video #1
Duration : 1h 30mn
Bit rate mode : Constant
Stream size : 0.00 Byte (0%)

Сравнения

BDRip vs LDRip



vs LDRip



vs LDRip


To download the content you need:
1. Download and install torrent client [for Windows] or for mobile system
2. Click on [Download]
Attention.
If the test YOU are NOT a ROBOT - does not work, then You are using an outdated browser.
Install the current browser and click on [Download]
Security: torrent client is allowed by Kaspersky.

[en.asmlocator.ru].t4086.torrent 
Torrent: Registered [ 2015-11-30 05:45 ] · 6F322CAC4FB8055C9A2552A869534EA644CFFFC1

Download .torrent

Download

18 KB

Status: checked
Completed: 0 times
Size: 3.45 GB
terms.php
[Profile] [PM]
Display posts:    
Reply to topic

Current time is: 14-Dec 21:38

All times are UTC ± 0



You cannot post new topics in this forum
You cannot reply to topics in this forum
You cannot edit your posts in this forum
You cannot delete your posts in this forum
You cannot vote in polls in this forum
You cannot attach files in this forum
You can download files in this forum
Верим фактам, а не вранью Путина! Факт, что Правительство ведёт Россию к истреблению.
Так как численность населения падает, даже не смотря на приток эмигрантов!
Русская нация вымирает и вырождается, смешиваясь с эмигрантами!
Факт, что военных и граждан предприятий заставляют голосовать за партию Единая Россия и Путина
ПОД СТРАХОМ УВОЛЬНЕНИЯ!
Нам не нужно Правительство, блокирующее личную жизнь, интернет, нарушающее сохранность данных.
Все эти действия финансируются за счёт народа!